2013Zone For Latest Downloads

 
     
 
Legal Downloads » Music » Philippe Luttun - The Taste Of Wormwood (2014) {Musea Parallele}
Menu
Home Applications
Games Movies
Music TV Shows
Torrents Graphics

Sitemap

RSS
 
Advanced Search
Last News
Site Info
Top Contributors:
  1    supper88 32766
  2    admin 32693
  3    Whisky 10080
  4    Shark_ 8911
  5    creativelivenew 8706
  6    whathesupa 2799
  7    candymypost 840
  8    hvnteam 629
  9    vuong87 3


Articles:
  This Hour: 0
  Today: 0
  This Month: 62
  All Time: 515562


Torrents:
  Today: 0
  Yesterday: 0
  All Time: 156685


Membership:
  Registered Today :0
  This Hour:0
  This Month:0
  Total:14
  Banned:1

{online}
{inform_torrent}
Friend:
We Recomend
Trend
Trend
Ad1

Search In Site

Music : Philippe Luttun - The Taste Of Wormwood (2014) {Musea Parallele}
 

http://i68.fastpic.ru/big/2015/0104/e3/c98e639ce6987d6c53a16f58575521e3.jpg
Philippe Luttun - The Taste Of Wormwood (2014) {Musea Parallele}
EAC rip (secure mode) | FLAC (tracks)+CUE+LOG -> 449 Mb | MP3 @320 -> 159 Mb
Full Artwork @ 300 dpi (png) -> 44 Mb | 5% repair rar
© 2014 Musea Parallele / PL | MP 3286
Rock / Progressive Rock / Progressive Metal

"We have just discovered a new shining star in the bright Progressive rock universe, a comet named Philippe LUTTUN, whose forthoming arrival should make a deep impact ! This amazing French multi-instrumentalist offers today a cinematic concept-album inspired by Chernobyl's nuclear disaster that happened April 26th 1986, from its causes to its most terrific consequences. This is not for all audiences ! Published in the year 2014 on the Musea Parallèle label, "The Taste Of Wormwood - Voices From Chernobyl" displays eight grandiose tracks, entirely performed by Philippe Luttun, only helped by a female singer here and there. One could be reminded of Pink Floyd, Clearlight, Porcupine Tree, Liquid Tension Experiment or Pulsar, these influences being perfectly assimilated and remixed, often completed by slavic (The action takes place in the U.S.S.R.) or electro touches. In the end, there's no other way than admitting that the word "masterpiece" has been tailor-made for this album!"

Youtube INFO

Personnel:
Philippe Luttun - vocals, guitars, keyboards, bass & drums programming
Pris. K - lead & background vocals

tracklist:
01 - Prelude to a disaster
02 - The ghosts of Pripyat
03 - Reaktor 4
04 - The day after
05 - Red forest
06 - On the roof of hell
07 - The macabre pilgrimage
08 - Heroes end

Exact Audio Copy V1.0 beta 3 from 29. August 2011

EAC extraction logfile from 18. April 2014, 14:32

Philippe Luttun / The Taste of Wormwood

Used drive : ASUS DRW-1608P3S Adapter: 1 ID: 1

Read mode : Secure
Utilize accurate stream : Yes
Defeat audio cache : Yes
Make use of C2 pointers : No

Read offset correction : 48
Overread into Lead-In and Lead-Out : No
Fill up missing offset samples with silence : Yes
Delete leading and trailing silent blocks : No
Null samples used in CRC calculations : Yes
Used interface : Installed external ASPI interface
Gap handling : Appended to previous track

Used output format : User Defined Encoder
Selected bitrate : 128 kBit/s
Quality : High
Add ID3 tag : No
Command line compressor : C:\Program Files\Exact Audio Copy\Flac\flac.exe
Additional command line options : -V -8 -T "Date=%year%" -T "Genre=%genre%" %source%

TOC of the extracted CD Track | Start | Length | Start sector | End sector
-----------
1 | 0:00.00 | 3:43.37 | 0 | 16761
2 | 3:43.37 | 13:39.64 | 16762 | 78250
3 | 17:23.26 | 6:47.19 | 78251 | 108794
4 | 24:10.45 | 10:17.13 | 108795 | 155082
5 | 34:27.58 | 7:13.67 | 155083 | 187624
6 | 41:41.50 | 15:39.42 | 187625 | 258091
7 | 57:21.17 | 7:12.17 | 258092 | 290508
8 | 64:33.34 | 2:24.00 | 290509 | 301308

Track 1 Filename E:\bzp01\Philippe Luttun - The Taste of Wormwood (2014) [FLAC] {MP3286}\01 - Prelude to a disaster.wav Pre-gap length 0:00:02.00 Peak level 96.6 %
Extraction speed 4.2 X
Track quality 100.0 %
Test CRC E82250DD
Copy CRC E82250DD
Track not present in AccurateRip database
Copy OK

Track 2 Filename E:\bzp01\Philippe Luttun - The Taste of Wormwood (2014) [FLAC] {MP3286}\02 - The ghosts of Pripyat.wav Pre-gap length 0:00:02.00 Peak level 96.6 %
Extraction speed 5.7 X
Track quality 100.0 %
Test CRC 5FE56544
Copy CRC 5FE56544
Track not present in AccurateRip database
Copy OK

Track 3 Filename E:\bzp01\Philippe Luttun - The Taste of Wormwood (2014) [FLAC] {MP3286}\03 - Reaktor 4.wav Pre-gap length 0:00:02.00 Peak level 96.6 %
Extraction speed 6.3 X
Track quality 100.0 %
Test CRC 4AF68187
Copy CRC 4AF68187
Track not present in AccurateRip database
Copy OK

Track 4 Filename E:\bzp01\Philippe Luttun - The Taste of Wormwood (2014) [FLAC] {MP3286}\04 - The day after.wav Pre-gap length 0:00:02.00 Peak level 96.6 %
Extraction speed 6.9 X
Track quality 99.9 %
Test CRC C3AF8D3B
Copy CRC C3AF8D3B
Track not present in AccurateRip database
Copy OK

Track 5 Filename E:\bzp01\Philippe Luttun - The Taste of Wormwood (2014) [FLAC] {MP3286}\05 - Red forest.wav Pre-gap length 0:00:02.00 Peak level 96.6 %
Extraction speed 7.0 X
Track quality 99.9 %
Test CRC A828BE50
Copy CRC A828BE50
Track not present in AccurateRip database
Copy OK

Track 6 Filename E:\bzp01\Philippe Luttun - The Taste of Wormwood (2014) [FLAC] {MP3286}\06 - On the roof of hell.wav Pre-gap length 0:00:02.00 Peak level 96.6 %
Extraction speed 8.3 X
Track quality 99.9 %
Test CRC 8B78AF94
Copy CRC 8B78AF94
Track not present in AccurateRip database
Copy OK

Track 7 Filename E:\bzp01\Philippe Luttun - The Taste of Wormwood (2014) [FLAC] {MP3286}\07 - The macabre pilgrimage.wav Pre-gap length 0:00:02.00 Peak level 96.6 %
Extraction speed 8.1 X
Track quality 99.9 %
Test CRC 33DAF591
Copy CRC 33DAF591
Track not present in AccurateRip database
Copy OK

Track 8 Filename E:\bzp01\Philippe Luttun - The Taste of Wormwood (2014) [FLAC] {MP3286}\08 - Heroes end.wav Pre-gap length 0:00:02.00 Peak level 96.6 %
Extraction speed 7.7 X
Track quality 100.0 %
Test CRC 460BCE39
Copy CRC 460BCE39
Track not present in AccurateRip database
Copy OK

None of the tracks are present in the AccurateRip database

No errors occurred

End of status report

==== Log checksum 6A581FA16219BA6FCADD4DFEAC9A0271A8C9738533A8CD374D5102A37AA0BAC9 ====

http://i68.fastpic.ru/big/2015/0104/fa/c4d9e4a6d211b2768b509eaa93c46afa.jpg

http://i66.fastpic.ru/big/2015/0104/8a/aaffa9a8dc831071431c42c19d2d1a8a.jpg

DOWNLOAD LINKS:
Buy Premium From My Links To Get Resumable Support,Max Speed & Support Me


Links are Interchangeable - No Password - Single Extraction

Philippe Luttun - The Taste Of Wormwood (2014) {Musea Parallele} Fast Download


Ad2

 
 
 
Dear visitor, you went to the site as an unregistered user. We encourage you to register or enter the site under your name.
 
   
 
 (Votes #: 0)