2013Zone For Latest Downloads

 
     
 
Legal Downloads » Music » John Lennon - Walls And Bridges (1974) [2014, Universal Music Japan, UICY-40105]
Menu
Home Applications
Games Movies
Music TV Shows
Torrents Graphics

Sitemap

RSS
 
Advanced Search
Last News
Site Info
Top Contributors:
  1    supper88 32766
  2    admin 32683
  3    Whisky 10080
  4    Shark_ 8911
  5    creativelivenew 8706
  6    whathesupa 2799
  7    candymypost 840
  8    hvnteam 629
  9    vuong87 3


Articles:
  This Hour: 0
  Today: 0
  This Month: 52
  All Time: 515552


Torrents:
  Today: 0
  Yesterday: 0
  All Time: 156675


Membership:
  Registered Today :0
  This Hour:0
  This Month:0
  Total:14
  Banned:1

{online}
{inform_torrent}
Friend:
Download Nulled Scripts
Torrent Download
Trend
Trend
VPN_ad

Search In Site

Music : John Lennon - Walls And Bridges (1974) [2014, Universal Music Japan, UICY-40105]
 
http://i63.fastpic.ru/big/2015/0104/cb/a2db0c8f2e12576fda19b0565e0673cb.jpg

John Lennon - Walls And Bridges (1974)
EAC | Flac(Image) + Cue + Log & MP3 CBR 320Kbps
Universal Music Japan, UICY-40105 | ~ 286 or 109 Mb | Scans(png) -> 328 Mb
Classic Rock / Pop Rock

"Walls and Bridges was recorded during John Lennon's infamous "lost weekend," as he exiled himself in California during a separation from Yoko Ono. Lennon's personal life was scattered, so it isn't surprising that Walls and Bridges is a mess itself, containing equal amounts of brilliance and nonsense..."

John Lennon - Walls And Bridges (1974):

http://i66.fastpic.ru/big/2015/0104/4b/82b4f21f26a3ac67b521fcdec4c2994b.jpg

Tracklist:

01. Going Down On Love 03:57
02. Whatever Gets You Thru The Night 03:27
03. Old Dirt Road 04:13
04. What You Got 03:09
05. Bless You 04:37
06. Scared 04:41
07. #9 Dream 04:46
08. Surprise, Surprise (Sweet Bird Of Paradox) 02:56
09. Steel And Glass 04:39
10. Beef Jerky 03:31
11. Nobody Loves You (When You're Down And Out) 05:3
12. Ya Ya 01:08

Exact Audio Copy V1.0 beta 3 from 29. August 2011

EAC extraction logfile from 21. December 2014, 11:33

John Lennon / Walls And Bridges PT-SHM

Used drive : PLEXTOR BD-R PX-B950SA Adapter: 6 ID: 0

Read mode : Secure
Utilize accurate stream : Yes
Defeat audio cache : Yes
Make use of C2 pointers : No

Read offset correction : 6
Overread into Lead-In and Lead-Out : No
Fill up missing offset samples with silence : Yes
Delete leading and trailing silent blocks : No
Null samples used in CRC calculations : Yes
Used interface : Native Win32 interface for Win NT & 2000

Used output format : Internal WAV Routines
Sample format : 44.100 Hz; 16 Bit; Stereo

TOC of the extracted CD Track | Start | Length | Start sector | End sector
-----------
1 | 0:00.00 | 3:57.23 | 0 | 17797
2 | 3:57.23 | 3:27.30 | 17798 | 33352
3 | 7:24.53 | 4:13.57 | 33353 | 52384
4 | 11:38.35 | 3:09.20 | 52385 | 66579
5 | 14:47.55 | 4:37.10 | 66580 | 87364
6 | 19:24.65 | 4:41.00 | 87365 | 108439
7 | 24:05.65 | 4:46.68 | 108440 | 129957
8 | 28:52.58 | 2:56.72 | 129958 | 143229
9 | 31:49.55 | 4:39.65 | 143230 | 164219
10 | 36:29.45 | 3:31.25 | 164220 | 180069
11 | 40:00.70 | 5:13.13 | 180070 | 203557
12 | 45:14.08 | 1:08.05 | 203558 | 208662

Range status and errors

Selected range Filename C:\Users\Meijin\Desktop\ALLexxess\John Lennon\1974 Walls And Bridges (Mini LP PT-SHM Universal Japan 2014)\John Lennon - Walls And Bridges PT-SHM.wav Peak level 97.7 %
Extraction speed 6.8 X
Range quality 99.9 %
Test CRC A3748CA1
Copy CRC A3748CA1
Copy OK

No errors occurred


AccurateRip summary

Track 1 not present in database
Track 2 not present in database
Track 3 not present in database
Track 4 not present in database
Track 5 not present in database
Track 6 not present in database
Track 7 not present in database
Track 8 not present in database
Track 9 not present in database
Track 10 not present in database
Track 11 not present in database
Track 12 not present in database

None of the tracks are present in the AccurateRip database

End of status report

foobar2000 1.2.9 / Dynamic Range Meter 1.1.1
log date: 2015-01-01 03:19:04

--
Analyzed: John Lennon / Walls And Bridges PT-SHM
--

DR Peak RMS Duration Track
--
DR12 -0.22 dB -14.72 dB 3:57 01-Going Down On Love
DR12 -0.25 dB -13.25 dB 3:27 02-Whatever Gets You Through The Night
DR11 -0.23 dB -13.34 dB 4:14 03-Old Dirt Road
DR12 -0.22 dB -13.41 dB 3:09 04-What You Got
DR12 -0.24 dB -14.79 dB 4:37 05-Bless You
DR10 -0.20 dB -12.49 dB 4:41 06-Scared
DR11 -0.24 dB -13.26 dB 4:47 07-#9 Dream
DR11 -0.22 dB -13.56 dB 2:57 08-Surprise, Surprise (Sweet Bird Of Paradox)
DR11 -0.24 dB -13.88 dB 4:40 09-Steel And Glass
DR13 -0.22 dB -14.86 dB 3:31 10-Beef Jerky
DR11 -0.24 dB -14.33 dB 5:13 11-Nobody Loves You (When You're Down And Out)
DR11 -3.78 dB -20.14 dB 1:08 12-Ya Ya
--

Number of tracks: 12
Official DR value: DR11

Samplerate: 44100 Hz
Channels: 2
Bits per sample: 16
Bitrate: 835 kbps
Codec: FLAC

[CUETools log; Date: 26.12.2014 11:48:46; Version: 2.1.4]
[CTDB TOCID: OrX6YYqlbPGGy0qDO9KEv8Bslwc-] disk not present in database.
[AccurateRip ID: 00154ba4-00c76861-9c0ade0c] disk not present in database.

Track Peak [ CRC32 ] [W/O NULL] [ LOG ]
-- 97,7 [A3748CA1] [561FAFC6] CRC32
01 97,5 [4F077794] [8EBF0FE0]
02 97,1 [C556D2D2] [4631B2C0]
03 97,3 [A6C502CC] [0DA5539A]
04 97,5 [160D1639] [7F2F35F0]
05 97,2 [3578545F] [7031416A]
06 97,7 [9CA7C88B] [FCE7625B]
07 97,2 [AE9DC330] [A0408DE4]
08 97,4 [DE4EEA64] 6BCD5A1
09 97,2 [5A1C3367] [540141C5]
10 97,4 [864FAC35] [807FB8B4]
11 97,2 [710F0C04] [64049C2A]
12 64,7 [EA7C6A50] [1817F39B]

http://i64.fastpic.ru/big/2015/0104/af/644be9c6d05854f7b795a75cfc38d5af.jpg

DOWNLOAD LINKS:
Buy Premium From My Links To Get Resumable Support,Max Speed & Support Me


Links are Interchangeable - No Password - Single Extraction

John Lennon - Walls And Bridges (1974) [2014, Universal Music Japan, UICY-40105] Fast Download


Cheap VPN

 
 
 
Dear visitor, you went to the site as an unregistered user. We encourage you to register or enter the site under your name.
 
   
 
 (Votes #: 0)