2013Zone For Latest Downloads

 
     
 
Legal Downloads » TV Shows » Revelation - The End of Days (2014)
Menu
Home Applications
Games Movies
Music TV Shows
Torrents Graphics

Sitemap

RSS
 
Advanced Search
Last News
Site Info
Top Contributors:
  1    supper88 32766
  2    admin 32693
  3    Whisky 10080
  4    Shark_ 8911
  5    creativelivenew 8706
  6    whathesupa 2799
  7    candymypost 840
  8    hvnteam 629
  9    vuong87 3


Articles:
  This Hour: 0
  Today: 10
  This Month: 62
  All Time: 515562


Torrents:
  Today: 0
  Yesterday: 0
  All Time: 156685


Membership:
  Registered Today :0
  This Hour:0
  This Month:0
  Total:14
  Banned:1

{online}
{inform_torrent}
Friend:
We Recomend
Trend
Trend
XsAd

Search In Site

TV Shows : Revelation - The End of Days (2014)
 
http://i67.fastpic.ru/big/2015/0104/d7/62eec0fd2e28068efb426b22bee622d7.jpg

Revelation - The End of Days (2014)
HDTV | 1280x720 | MKV/x264 @ 3662 Kbps | 2x83mn | Audio: English AC3 384 kbps, 6 channels | Subs: None | 2x2.39 GB
Genre: Documentary

Almost 2,000 years ago, the final book of the Bible, Revelation, predicted that Christ would return but only after a period of chaos and torment inflicted on the world to test the faith of mankind. Revelation: The End of Days is a gripping, dramatic interpretation of how the ancient prophecies of The Book of Revelation could unfold in our modern world. The two-night, four-hour event brings to life six fictional characters' firsthand accounts of the "End of Days" events. Revelation: The End of Days merges drama with re-purposed real news archive to thrust a group of fictional characters into an imagining of the Apocalypse. The program follows the dramatic stories of a TV reporter, a police officer, a doctor, a scientist and a college professor as they deal with chaos, war, earthquakes and a deadly pandemic.
More info

Season 1, Episode 1 - "Trumpets Sound"
What if the apocalyptic prophecies of Revelation were to unfold today? When the Wailing Wall comes down in a series of bomb attacks that rock Jerusalem, the event kick-starts seven years of torment that will test the limits of mankind. A Pennsylvania cop hunts for hundreds of thousands of children mysteriously missing in a storm-ravaged America. Two scientists race to stop a deadly pandemic that threatens to decimate the world. And a TV reporter trapped inside a war-torn Israel desperately tries to decode the secrets of Revelation.

Season 1, Episode 2 - "Road to Babylon"
What if the apocalyptic prophecies of the Bible were to unfold today? As the world is ripped apart by a sequence of horrifying catastrophes, a TV reporter and his cameraman embark on an epic road trip across war-ravaged America. Their goal? To decode the secrets of Revelation-and identify the Antichrist. Their journey plunges them into the heart of the Apocalypse. If they can make their way through the rivers of blood, plagues of locusts and fields of fire prophesied 2000 years ago, they stand a chance of witnessing the most extraordinary event of all: The Second Coming of Christ.

Video
ID : 1
Format : AVC
Format/Info : Advanced Video Codec
Format profile : [email protected]
Format settings, CABAC : Yes
Format settings, ReFrames : 5 frames
Codec ID : V_MPEG4/ISO/AVC
Duration : 1h 23mn
Bit rate : 3 662 Kbps
Width : 1 280 pixels
Height : 720 pixels
Display aspect ratio : 16:9
Frame rate : 29.970 fps
Color space : YUV
Chroma subsampling : 4:2:0
Bit depth : 8 bits
Scan type : Progressive
Bits/(Pixel*Frame) : 0.133
Stream size : 2.12 GiB (89%)
Writing library : x264 core 144 r2525 40bb568
Encoding settings : cabac=1 / ref=5 / deblock=1:0:0 / analyse=0x3:0x113 / me=umh / subme=8 / psy=1 / psy_rd=1.00:0.00 / mixed_ref=1 / me_range=16 / chroma_me=1 / trellis=1 / 8x8dct=1 / cqm=0 / deadzone=21,11 / fast_pskip=1 / chroma_qp_offset=-2 / threads=12 / lookahead_threads=2 / sliced_threads=0 / nr=0 / decimate=1 / interlaced=0 / bluray_compat=0 / constrained_intra=0 / bframes=3 / b_pyramid=2 / b_adapt=2 / b_bias=0 / direct=3 / weightb=1 / open_gop=0 / weightp=2 / keyint=250 / keyint_min=25 / scenecut=40 / intra_refresh=0 / rc_lookahead=50 / rc=crf / mbtree=1 / crf=19.0 / qcomp=0.60 / qpmin=0 / qpmax=69 / qpstep=4 / ip_ratio=1.40 / aq=1:1.00
Matrix coefficients : BT.709-5, BT.1361, IEC 61966-2-4 709, SMPTE RP177

Audio
ID : 2
Format : AC-3
Format/Info : Audio Coding 3
Mode extension : CM (complete main)
Codec ID : A_AC3
Duration : 1h 23mn
Bit rate mode : Constant
Bit rate : 384 Kbps
Channel(s) : 6 channels
Channel positions : Front: L C R, Side: L R, LFE
Sampling rate : 48.0 KHz
Bit depth : 16 bits
Compression mode : Lossy
Stream size : 228 MiB (9%)

http://i66.fastpic.ru/big/2015/0104/26/815afd9e691a7b72e86d380e9d66e226.jpg


DOWNLOAD LINKS:
Buy Premium From My Links To Get Resumable Support,Max Speed & Support Me


Links are Interchangeable - No Password - Single Extraction

Revelation - The End of Days (2014) Fast Download


XsAd2

 
 
 
Dear visitor, you went to the site as an unregistered user. We encourage you to register or enter the site under your name.
 
   
 
 (Votes #: 0)