2013Zone For Latest Downloads

 
     
 
Legal Downloads » Music » Jeff Beck - Live In Tokyo (2014)
Menu
Home Applications
Games Movies
Music TV Shows
Torrents Graphics

Sitemap

RSS
 
Advanced Search
Last News
Site Info
Top Contributors:
  1    supper88 32766
  2    admin 32693
  3    Whisky 10080
  4    Shark_ 8911
  5    creativelivenew 8706
  6    whathesupa 2799
  7    candymypost 840
  8    hvnteam 629
  9    vuong87 3


Articles:
  This Hour: 10
  Today: 10
  This Month: 62
  All Time: 515562


Torrents:
  Today: 10
  Yesterday: 0
  All Time: 156685


Membership:
  Registered Today :0
  This Hour:0
  This Month:0
  Total:14
  Banned:1

{online}
{inform_torrent}
Friend:
We Recomend
Trend
Trend
VPN_ad

Search In Site

Music : Jeff Beck - Live In Tokyo (2014)
 
http://i66.fastpic.ru/big/2015/0104/a1/64c0ac5bc03ff074a449d989ca3b9ea1.jpg

Jeff Beck - Live In Tokyo (2014)
Rock - Blues Rock | Bluray-rip 1080p | Audio: English | Subtitles: None | Run time: 91 mins | 12.9 GB
AVC, MKV 1920x864 (16:9) 29.97fps, 18260kbps | DTS, 48000Hz, 6ch, 1510kbps

"Eagle Rock Entertainment will release Live In Tokyo by Jeff Beck on DVD, Blu-ray, and Digital Formats. The set includes "Stratus," "Led Boots," "Cause We Ended As Lovers," "Big Block," "A Day In The Life," "Rollin' And Tumblin'" and many more. Jeff Beck is undeniably one of the world's greatest guitar players. Technically brilliant, he is renowned for pushing musical boundaries and has excelled across many different genres from rock and jazz to pop and blues. His versatility and unmatched musicianship is captured beautifully on Live In Tokyo."

"Reviews: Jeff Beck Tokyo Live showcases the greatest rock guitar player still stretching the envelope of emotional guitar melodic sounds from worldwide cultural influences cleverly never far from the blues rock roots of his youth. Supported by enthusiastic world class stage veterans Jonathan Joseph drums, Rhonda Smith , bass, and Nicolas Meier guitar and midi, Jeff Beck wanted this Japanese venue to contrast his previous small club Ronnie Scott s Platinum selling video to a larger rock concert feel without all the hollering and hoopla of a typical arena rock concert as Japanese audiences no matter how large as in this sold out Tokyo Dome, are attentive and into the music while politely showing their enthusiasm.The set list runs the gamut from the familiar engine driven hard twangs of Big Block through nee uncharted Mid Eastern flavored The Pledge to the angelic and voted number one slow instrumental of all time by Rolling Stone, "Cause We ve Ended As Lovers" and ends with guess what....yes another new song the funky "Why Why Give it Away". The sound clarity on this video is without peer thanks to engineer Alan Branch and the Bonus Interviews with Jeff and the Band are short informative and very upbeat. Buy this video. Well worth it."


Tracklisting:

01. Loaded
02. Little Wing
03. You Know You Know
04. Hammerhead
05. Angel (Footsteps)
06. Stratus
07. Yemin
08. Where Were You
09. The Pump
10. Medley: Goodbye Pork Pie Hat / Brush With The Blues
11. You Never Know
12. Danny Boy
13. Blue Wind
14. Led Boots
15. Corpus Christi
16. Big Block
17. A Day In The Life
18. Rollin' And Tumblin'
19. Cause We Ended As Lovers
20. Why Give It Away

Screeshots

http://i65.fastpic.ru/big/2015/0104/89/cb3f60e7d644ba91427249576a536989.jpg



Video
ID : 1
Format : AVC
Format/Info : Advanced Video Codec
Format profile : [email protected]
Format settings, CABAC : Yes
Format settings, ReFrames : 5 frames
Format settings, GOP : M=6, N=16
Codec ID : V_MPEG4/ISO/AVC
Duration : 1h 31mn
Bit rate : 18.2 Mbps
Width : 1 920 pixels
Height : 864 pixels
Display aspect ratio : 2.222
Frame rate : 23.976 fps
Color space : YUV
Chroma subsampling : 4:2:0
Bit depth : 8 bits
Scan type : Progressive
Bits/(Pixel*Frame) : 0.458
Stream size : 11.7 GiB (91%)
Writing library : x264 core 142 r2431+42 c69a006 tMod [[email protected] X86_64]
Encoding settings : cabac=1 / ref=5 / deblock=1:-3:-3 / analyse=0x3:0x133 / me=esa / subme=10 / psy=1 / fade_compensate=0.00 / psy_rd=1.05:0.00 / mixed_ref=1 / me_range=32 / chroma_me=1 / trellis=2 / 8x8dct=1 / cqm=0 / deadzone=21,11 / fast_pskip=0 / chroma_qp_offset=-2 / threads=12 / lookahead_threads=2 / sliced_threads=0 / nr=0 / decimate=1 / interlaced=0 / bluray_compat=0 / constrained_intra=0 / fgo=0 / bframes=7 / b_pyramid=2 / b_adapt=2 / b_bias=0 / direct=3 / weightb=1 / open_gop=0 / weightp=2 / keyint=241 / keyint_min=23 / scenecut=40 / intra_refresh=0 / rc_lookahead=60 / rc=crf / mbtree=0 / crf=18.0000 / qcomp=0.65 / qpmin=0:0:0 / qpmax=69:69:69 / qpstep=4 / vbv_maxrate=50000 / vbv_bufsize=62500 / crf_max=0.0 / nal_hrd=none / filler=0 / ip_ratio=1.40 / pb_ratio=1.30 / aq=4:0.80 / aq-sensitivity=10.00 / aq-factor=1.00:1.00:1.00 / aq2=0 / aq3=0
Language : English

Audio
ID : 2
Format : DTS
Format/Info : Digital Theater Systems
Codec ID : A_DTS
Duration : 1h 31mn
Bit rate mode : Constant
Bit rate : 1 510 Kbps
Channel(s) : 6 channels
Channel positions : Front: L C R, Side: L R, LFE
Sampling rate : 48.0 KHz
Bit depth : 24 bits
Compression mode : Lossy
Stream size : 993 MiB (8%)
Language : English

Menu
00:00:00.000 : en:Loaded
00:04:52.209 : en:Little Wing
00:08:02.273 : en:You Know You Know
00:14:46.052 : en:Hammerhead
00:18:50.379 : en: Angel (Footsteps)
00:24:20.459 : en:Stratus
00:30:06.013 : en:Yemin
00:36:29.270 : en:Where Were You
00:39:44.382 : en:The Pump
00:43:41.619 : en:Medley: Goodbye Pork Pie Hat / Brush With The Blues
00:47:49.867 : en:You Never Know
00:51:55.112 : en:Danny Boy
00:54:58.504 : en:Blue Wind
00:57:53.303 : en:Led Boots
01:02:03.470 : en:Corpus Christi
01:04:36.623 : en:Big Block
01:09:55.024 : en:A Day In The Life
01:16:06.020 : en:Rollin' And Tumblin'
01:21:19.875 : en:Cause We Ended As Lovers
01:25:18.780 : en:Why Give It Away

Thanks to the original releaser
DOWNLOAD LINKS:
Buy Premium From My Links To Get Resumable Support,Max Speed & Support Me

http://uploaded.net/img/public/234x60.jpg
070mh.J.B.L.I.T.2014.part01.rar
070mh.J.B.L.I.T.2014.part02.rar
070mh.J.B.L.I.T.2014.part03.rar
070mh.J.B.L.I.T.2014.part04.rar
070mh.J.B.L.I.T.2014.part05.rar
070mh.J.B.L.I.T.2014.part06.rar
070mh.J.B.L.I.T.2014.part07.rar
070mh.J.B.L.I.T.2014.part08.rar
070mh.J.B.L.I.T.2014.part09.rar
070mh.J.B.L.I.T.2014.part10.rar
070mh.J.B.L.I.T.2014.part11.rar
070mh.J.B.L.I.T.2014.part12.rar
070mh.J.B.L.I.T.2014.part13.rar
070mh.J.B.L.I.T.2014.part14.rar
070mh.J.B.L.I.T.2014.part15.rar
070mh.J.B.L.I.T.2014.part16.rar
070mh.J.B.L.I.T.2014.part17.rar
070mh.J.B.L.I.T.2014.part18.rar

http://i.imgur.com/UNMP0OS.gif
070mh.J.B.L.I.T.2014.part01.rar.html
070mh.J.B.L.I.T.2014.part02.rar.html
070mh.J.B.L.I.T.2014.part03.rar.html
070mh.J.B.L.I.T.2014.part04.rar.html
070mh.J.B.L.I.T.2014.part05.rar.html
070mh.J.B.L.I.T.2014.part06.rar.html
070mh.J.B.L.I.T.2014.part07.rar.html
070mh.J.B.L.I.T.2014.part08.rar.html
070mh.J.B.L.I.T.2014.part09.rar.html
070mh.J.B.L.I.T.2014.part10.rar.html
070mh.J.B.L.I.T.2014.part11.rar.html
070mh.J.B.L.I.T.2014.part12.rar.html
070mh.J.B.L.I.T.2014.part13.rar.html
070mh.J.B.L.I.T.2014.part14.rar.html
070mh.J.B.L.I.T.2014.part15.rar.html
070mh.J.B.L.I.T.2014.part16.rar.html
070mh.J.B.L.I.T.2014.part17.rar.html
070mh.J.B.L.I.T.2014.part18.rar.html

http://i.imgur.com/NbvsRsP.png
070mh.J.B.L.I.T.2014.part01.rar.html
070mh.J.B.L.I.T.2014.part02.rar.html
070mh.J.B.L.I.T.2014.part03.rar.html
070mh.J.B.L.I.T.2014.part04.rar.html
070mh.J.B.L.I.T.2014.part05.rar.html
070mh.J.B.L.I.T.2014.part06.rar.html
070mh.J.B.L.I.T.2014.part07.rar.html
070mh.J.B.L.I.T.2014.part08.rar.html
070mh.J.B.L.I.T.2014.part09.rar.html
070mh.J.B.L.I.T.2014.part10.rar.html
070mh.J.B.L.I.T.2014.part11.rar.html
070mh.J.B.L.I.T.2014.part12.rar.html
070mh.J.B.L.I.T.2014.part13.rar.html
070mh.J.B.L.I.T.2014.part14.rar.html
070mh.J.B.L.I.T.2014.part15.rar.html
070mh.J.B.L.I.T.2014.part16.rar.html
070mh.J.B.L.I.T.2014.part17.rar.html
070mh.J.B.L.I.T.2014.part18.rar.html

Links are Interchangeable - No Password - Single Extraction

Jeff Beck - Live In Tokyo (2014) Fast Download


Cheap VPN

 
 
 
Dear visitor, you went to the site as an unregistered user. We encourage you to register or enter the site under your name.
 
   
 
 (Votes #: 0)