2013Zone For Latest Downloads

 
     
 
Legal Downloads » TV Shows » FA Cups 50 Greatest Moments (2014)
Menu
Home Applications
Games Movies
Music TV Shows
Torrents Graphics

Sitemap

RSS
 
Advanced Search
Last News
Site Info
Top Contributors:
  1    supper88 32766
  2    admin 32683
  3    Whisky 10080
  4    Shark_ 8911
  5    creativelivenew 8706
  6    whathesupa 2799
  7    candymypost 840
  8    hvnteam 629
  9    vuong87 3


Articles:
  This Hour: 0
  Today: 20
  This Month: 52
  All Time: 515553


Torrents:
  Today: 0
  Yesterday: 0
  All Time: 156676


Membership:
  Registered Today :0
  This Hour:0
  This Month:0
  Total:14
  Banned:1

{online}
{inform_torrent}
Friend:
Download Nulled Scripts
Torrent Download
Trend
Trend
VPN_ad

Search In Site

TV Shows : FA Cups 50 Greatest Moments (2014)
 
http://i68.fastpic.ru/big/2015/0104/03/2e0274eb7aa56e0218aaf5fc7ff65503.jpg

FA Cups 50 Greatest Moments (2014)
PDTV | 832x468 | MKV/x264 @ 1404 Kbps | 117mn | Audio: English AAC 93.5 kbps, 2 channels | Subs: None | 1.24 GB
Genre: Documentary

Former England captain Rio Ferdinand and Helen Skelton present a special countdown of the FA Cup's 50 Greatest Moments. Football- loving Olly Murs leads the cast looking back at the most celebrated, most shocking, most memorable moments from the greatest domestic cup competition in the world. With contributions from FA Cup heroes Thierry Henry, Ryan Giggs, Steven Gerrard, Michael Owen, Vinnie Jones, Gary Lineker and Ruud Gullit, plus football fans Gabby Logan, Russell Brand, Louis Tomlinson, Wretch 32 and Eliza Doolittle.
More info

Video
ID : 1
Format : AVC
Format/Info : Advanced Video Codec
Format profile : [email protected]
Format settings, CABAC : Yes
Format settings, ReFrames : 2 frames
Codec ID : avc1
Codec ID/Info : Advanced Video Coding
Duration : 1h 57mn
Bit rate mode : Constant
Bit rate : 1 404 Kbps
Width : 832 pixels
Height : 468 pixels
Display aspect ratio : 16:9
Frame rate mode : Constant
Frame rate : 25.000 fps
Color space : YUV
Chroma subsampling : 4:2:0
Bit depth : 8 bits
Scan type : Progressive
Bits/(Pixel*Frame) : 0.144
Stream size : 1.15 GiB (93%)

Audio
ID : 2
Format : AAC
Format/Info : Advanced Audio Codec
Format version : Version 4
Format profile : LC
Codec ID : 40
Duration : 1h 57mn
Bit rate mode : Variable
Bit rate : 93.5 Kbps
Maximum bit rate : 102 Kbps
Channel(s) : 2 channels
Channel positions : Front: L R
Sampling rate : 48.0 KHz
Compression mode : Lossy
Stream size : 78.4 MiB (6%)

http://i67.fastpic.ru/big/2015/0104/19/c81e41c560308c8373ea404efbad5d19.jpg


DOWNLOAD LINKS:
Buy Premium From My Links To Get Resumable Support,Max Speed & Support Me


Links are Interchangeable - No Password - Single Extraction

FA Cups 50 Greatest Moments (2014) Fast Download


Cheap VPN

 
 
 
Dear visitor, you went to the site as an unregistered user. We encourage you to register or enter the site under your name.
 
   
 
 (Votes #: 0)