2013Zone For Latest Downloads

 
     
 
Legal Downloads » Music » Sam Most - I'm Nuts About The Most....Sam That Is! (1955) {2014 Japanese Bethlehem Album Collection 1000}
Menu
Home Applications
Games Movies
Music TV Shows
Torrents Graphics

Sitemap

RSS
 
Advanced Search
Last News
Site Info
Top Contributors:
  1    supper88 32766
  2    admin 32683
  3    Whisky 10080
  4    Shark_ 8911
  5    creativelivenew 8706
  6    whathesupa 2799
  7    candymypost 840
  8    hvnteam 629
  9    vuong87 3


Articles:
  This Hour: 0
  Today: 20
  This Month: 52
  All Time: 515553


Torrents:
  Today: 0
  Yesterday: 0
  All Time: 156676


Membership:
  Registered Today :0
  This Hour:0
  This Month:0
  Total:14
  Banned:1

{online}
{inform_torrent}
Friend:
Download Nulled Scripts
Torrent Download
Trend
Trend
VPN_ad

Search In Site

Music : Sam Most - I'm Nuts About The Most....Sam That Is! (1955) {2014 Japanese Bethlehem Album Collection 1000}
 

http://i64.fastpic.ru/big/2015/0104/40/660ea27522b85e2d2b07cd9282dbdc40.jpg
Sam Most - I'm Nuts About The Most....Sam That Is! (1955) {2014 Japanese Bethlehem Album Collection 1000}
EAC rip (secure mode) | FLAC (tracks)+CUE+LOG -> 230 Mb | MP3 @320 -> 87 Mb
Full Artwork @ 600 dpi (png) -> 222 Mb | 5% repair rar | East Coast Jazz Series No.9
© 2014 Solid Records / Bethlehem | CDSOL-6129 | LP BCP-18
Jazz / Bop / Cool / East Coast Jazz / Flute

"Sweet flute work from the great Sam Most - a player who really shone brightly during his 50s recordings for Bethlehem Records - of which this is one of the best! Sam's got a mean, lean quality to his solos - a mode that rivals that of Frank Wess on the instrument at the time, and may well beat Herbie Mann - able to step lively on more boppish numbers, but step back into these soulful lines at just the right moments. The rest of the group has a tight feel too - modern, but a bit playful too - with Marty Flax on baritone, Barry Galbraith on guitar, Billy Triglia on piano, and Oscar Pettiford on bass. Titles include "Deed I Do", "Broadway", "Smiles", "Don't Worry Bout Me", "How Deep Is The Ocean", and "Tea For Two"."

http://i64.fastpic.ru/big/2015/0104/46/f100a2c665fa1c3835911eca8009e246.jpg


Personnel:
Sam Most - flute
Marty Flax - baritone saxophone
Barry Galbraith - guitar
Billy Triglia - piano
Burgher Jones - bass
Oscar Pettiford - bass
Bobby Donaldson - drums
Osie Johnson - drums

http://i68.fastpic.ru/big/2015/0104/56/b583e9ad557adc6bc305765f9e84bf56.jpg


tracklist:
01 - Cherokee
02 - Don't Worry 'Bout Me
03 - What A Difference A Day Made
04 - How Deep Is The Ocean
05 - Falling In Love With Love
06 - Rose Room
07 - Smiles
08 - Broadway
09 - Tea For Two
10 - 'Deed I Do

Exact Audio Copy V1.0 beta 3 from 29. August 2011

EAC extraction logfile from 25. December 2014, 13:14

Sam Most / I'm Nuts About The Most....Sam That Is!

Used drive : ATAPI iHAS124 B Adapter: 2 ID: 1

Read mode : Secure
Utilize accurate stream : Yes
Defeat audio cache : Yes
Make use of C2 pointers : No

Read offset correction : 6
Overread into Lead-In and Lead-Out : No
Fill up missing offset samples with silence : Yes
Delete leading and trailing silent blocks : No
Null samples used in CRC calculations : Yes
Used interface : Native Win32 interface for Win NT & 2000
Gap handling : Appended to previous track

Used output format : User Defined Encoder
Selected bitrate : 1024 kBit/s
Quality : High
Add ID3 tag : No
Command line compressor : C:\Program Files (x86)\FLAC Frontend\tools\flac.exe
Additional command line options : -8 -V -T "ARTIST=%artist%" -T "TITLE=%title%" -T "ALBUM=%albumtitle%" -T "DATE=%year%" -T "TRACKNUMBER=%tracknr%" -T "TOTALTRACKS=%numtracks%" -T "GENRE=%genre%" -T "ALBUMARTIST=%albumartist%" -T "ALBUM ARTIST=%albumartist%" -T "COMMENT=EAC Secure Mode, Test & Copy, AccurateRip, FLAC -8" %source%

TOC of the extracted CD Track | Start | Length | Start sector | End sector
-----------
1 | 0:00.00 | 4:17.21 | 0 | 19295
2 | 4:17.21 | 2:20.72 | 19296 | 29867
3 | 6:38.18 | 3:54.42 | 29868 | 47459
4 | 10:32.60 | 3:43.05 | 47460 | 64189
5 | 14:15.65 | 4:14.62 | 64190 | 83301
6 | 18:30.52 | 3:55.60 | 83302 | 100986
7 | 22:26.37 | 3:13.00 | 100987 | 115461
8 | 25:39.37 | 3:53.64 | 115462 | 133000
9 | 29:33.26 | 3:40.52 | 133001 | 149552
10 | 33:14.03 | 3:38.50 | 149553 | 165952

Track 1 Filename C:\Sam Most - I'm Nuts About The Most....Sam That Is! (1955) {2014 Japanese Bethlehem Album Collection 1000}\01 - Cherokee.wav Pre-gap length 0:00:02.00 Peak level 98.3 %
Extraction speed 2.9 X
Track quality 99.9 %
Test CRC A10A30B7
Copy CRC A10A30B7
Accurately ripped (confidence 1) [3CF8B98B] (AR v2)
Copy OK

Track 2 Filename C:\Sam Most - I'm Nuts About The Most....Sam That Is! (1955) {2014 Japanese Bethlehem Album Collection 1000}\02 - Don't Worry 'Bout Me.wav Peak level 98.2 %
Extraction speed 3.4 X
Track quality 100.0 %
Test CRC F3256CE7
Copy CRC F3256CE7
Accurately ripped (confidence 1) [8435D081] (AR v2)
Copy OK

Track 3 Filename C:\Sam Most - I'm Nuts About The Most....Sam That Is! (1955) {2014 Japanese Bethlehem Album Collection 1000}\03 - What A Difference A Day Made.wav Peak level 98.2 %
Extraction speed 4.0 X
Track quality 100.0 %
Test CRC F2811E7B
Copy CRC F2811E7B
Accurately ripped (confidence 1) [98235EE0] (AR v2)
Copy OK

Track 4 Filename C:\Sam Most - I'm Nuts About The Most....Sam That Is! (1955) {2014 Japanese Bethlehem Album Collection 1000}\04 - How Deep Is The Ocean.wav Peak level 98.2 %
Extraction speed 3.4 X
Track quality 99.9 %
Test CRC 9A9071B6
Copy CRC 9A9071B6
Accurately ripped (confidence 1) [38546D6C] (AR v2)
Copy OK

Track 5 Filename C:\Sam Most - I'm Nuts About The Most....Sam That Is! (1955) {2014 Japanese Bethlehem Album Collection 1000}\05 - Falling In Love With Love.wav Peak level 98.3 %
Extraction speed 4.7 X
Track quality 100.0 %
Test CRC FB46336A
Copy CRC FB46336A
Accurately ripped (confidence 1) [3284F37E] (AR v2)
Copy OK

Track 6 Filename C:\Sam Most - I'm Nuts About The Most....Sam That Is! (1955) {2014 Japanese Bethlehem Album Collection 1000}\06 - Rose Room.wav Peak level 98.3 %
Extraction speed 4.9 X
Track quality 100.0 %
Test CRC 9108DF7F
Copy CRC 9108DF7F
Accurately ripped (confidence 1) [0869BE52] (AR v2)
Copy OK

Track 7 Filename C:\Sam Most - I'm Nuts About The Most....Sam That Is! (1955) {2014 Japanese Bethlehem Album Collection 1000}\07 - Smiles.wav Peak level 98.3 %
Extraction speed 5.0 X
Track quality 100.0 %
Test CRC F25FEB68
Copy CRC F25FEB68
Accurately ripped (confidence 1) [86EA48E8] (AR v2)
Copy OK

Track 8 Filename C:\Sam Most - I'm Nuts About The Most....Sam That Is! (1955) {2014 Japanese Bethlehem Album Collection 1000}\08 - Broadway.wav Peak level 98.3 %
Extraction speed 5.4 X
Track quality 100.0 %
Test CRC EC805E99
Copy CRC EC805E99
Accurately ripped (confidence 1) [1465FFD9] (AR v2)
Copy OK

Track 9 Filename C:\Sam Most - I'm Nuts About The Most....Sam That Is! (1955) {2014 Japanese Bethlehem Album Collection 1000}\09 - Tea For Two.wav Peak level 98.3 %
Extraction speed 5.5 X
Track quality 100.0 %
Test CRC C750B64A
Copy CRC C750B64A
Accurately ripped (confidence 1) [2CDB0E09] (AR v2)
Copy OK

Track 10 Filename C:\Sam Most - I'm Nuts About The Most....Sam That Is! (1955) {2014 Japanese Bethlehem Album Collection 1000}\10 - 'Deed I Do.wav Peak level 98.3 %
Extraction speed 5.8 X
Track quality 100.0 %
Test CRC 63F0E443
Copy CRC 63F0E443
Accurately ripped (confidence 1) [D821C1A8] (AR v2)
Copy OK

All tracks accurately ripped

No errors occurred

End of status report

==== Log checksum DB2D5139B643E1047AC680C83250DA6879BE5EE99D47856E39DB99E5766357F8 ====

http://i64.fastpic.ru/big/2015/0104/21/bc7ba1823a1d8662715b95ba115af721.jpg

http://i63.fastpic.ru/big/2015/0104/5b/8ef0f8f042eb28456386829bbb7da45b.jpg


DOWNLOAD LINKS:
Buy Premium From My Links To Get Resumable Support,Max Speed & Support Me


Links are Interchangeable - No Password - Single Extraction

Sam Most - I'm Nuts About The Most....Sam That Is! (1955) {2014 Japanese Bethlehem Album Collection 1000} Fast Download


Cheap VPN

 
 
 
Dear visitor, you went to the site as an unregistered user. We encourage you to register or enter the site under your name.
 
   
 
 (Votes #: 0)