2013Zone For Latest Downloads

 
     
 
Legal Downloads » Music » Free - Highway (1970)
Menu
Home Applications
Games Movies
Music TV Shows
Torrents Graphics

Sitemap

RSS
 
Advanced Search
Last News
Site Info
Top Contributors:
  1    supper88 32766
  2    admin 32683
  3    Whisky 10080
  4    Shark_ 8911
  5    creativelivenew 8706
  6    whathesupa 2799
  7    candymypost 840
  8    hvnteam 629
  9    vuong87 3


Articles:
  This Hour: 0
  Today: 0
  This Month: 52
  All Time: 515552


Torrents:
  Today: 0
  Yesterday: 0
  All Time: 156675


Membership:
  Registered Today :0
  This Hour:0
  This Month:0
  Total:14
  Banned:1

{online}
{inform_torrent}
Friend:
Nulled Script Download
Torrent Download
Trend
Trend
VPN_ad

Search In Site

Music : Free - Highway (1970)
 
http://i67.fastpic.ru/big/2015/0104/2e/32f55fedd8ecfc7465b2e12140391f2e.jpg

Free - Highway (1970)
EAC | Flac(Image) + Cue + Log & MP3 CBR 320Kbps
1990 | Island, 842 358-2 | ~ 214 or 105 Mb | Scans Included
Blues Rock / Classic Rock

"Highway was recorded just three months after Free scored the career-redefining hit "Alright Now," and while their profile was at a career-topping high, their morale was heading toward an all-time low..."

Free - Highway (1970):

http://i65.fastpic.ru/big/2015/0104/be/736cd80acd9ac82fa1159e30d0c5c1be.jpg

Tracklist:

01. The Highway Song 4:17
02. The Stealer 3:18
03. On My Way 4:08
04. Be My Friend 5:48
05. Sunny Day 3:09
06. Ride On A Pony 4:19
07. Love You So 4:55
08. Bodie 3:07
09. Soon I Will Be Gone 3:02

Exact Audio Copy V1.0 beta 3 from 29. August 2011

EAC extraction logfile from 2. November 2014, 11:15

Free / Highway (842 358-2)

Used drive : PLEXTOR DVDR PX-891SA Adapter: 3 ID: 0

Read mode : Secure
Utilize accurate stream : Yes
Defeat audio cache : Yes
Make use of C2 pointers : No

Read offset correction : 6
Overread into Lead-In and Lead-Out : No
Fill up missing offset samples with silence : Yes
Delete leading and trailing silent blocks : No
Null samples used in CRC calculations : Yes
Used interface : Native Win32 interface for Win NT & 2000

Used output format : User Defined Encoder
Selected bitrate : 1024 kBit/s
Quality : High
Add ID3 tag : No
Command line compressor : C:\Program Files\Exact Audio Copy\Flac\flac.exe
Additional command line options : -V -8 -T "Genre=%genre%" -T "Artist=%artist%" -T "Title=%title%" -T "Album=%albumtitle%" -T "Date=%year%" -T "Tracknumber=%tracknr%" -T "Comment=%comment%" %source%

TOC of the extracted CD Track | Start | Length | Start sector | End sector
-----------
1 | 0:00.00 | 4:17.12 | 0 | 19286
2 | 4:17.12 | 3:17.38 | 19287 | 34099
3 | 7:34.50 | 4:07.50 | 34100 | 52674
4 | 11:42.25 | 5:48.25 | 52675 | 78799
5 | 17:30.50 | 3:09.25 | 78800 | 92999
6 | 20:40.00 | 4:19.12 | 93000 | 112436
7 | 24:59.12 | 4:54.50 | 112437 | 134536
8 | 29:53.62 | 3:06.50 | 134537 | 148536
9 | 33:00.37 | 3:01.63 | 148537 | 162174

Range status and errors

Selected range Filename H:\dafnaplus\Free ‎- Highway (Island 842 358-2)\Free - Highway (842 358-2).wav Peak level 100.0 %
Extraction speed 6.9 X
Range quality 99.9 %
Test CRC FED86754
Copy CRC FED86754
Copy OK

No errors occurred


AccurateRip summary

Track 1 accurately ripped (confidence 4) [75B385F1] (AR v2)
Track 2 accurately ripped (confidence 4) [C68B3A74] (AR v2)
Track 3 accurately ripped (confidence 4) [6BC786CE] (AR v2)
Track 4 accurately ripped (confidence 3) [963C2CE6] (AR v2)
Track 5 accurately ripped (confidence 4) [78D67701] (AR v2)
Track 6 accurately ripped (confidence 4) [3D3B6349] (AR v2)
Track 7 accurately ripped (confidence 4) [9F967A54] (AR v2)
Track 8 accurately ripped (confidence 4) [AECB7A23] (AR v2)
Track 9 accurately ripped (confidence 4) [109C740A] (AR v2)

All tracks accurately ripped

End of status report

foobar2000 1.2.9 / Dynamic Range Meter 1.1.1
log date: 2015-01-01 15:13:37

--
Analyzed: Free / Highway (842 358-2)
--

DR Peak RMS Duration Track
--
DR13 -0.90 dB -17.89 dB 4:17 01-The Highway Song
DR14 0.00 dB -17.90 dB 3:18 02-The Stealer
DR14 0.00 dB -17.87 dB 4:08 03-On My Way
DR14 -0.42 dB -17.41 dB 5:48 04-Be My Friend
DR13 -1.63 dB -17.99 dB 3:09 05-Sunny Day
DR14 -0.10 dB -16.49 dB 4:19 06-Ride On A Pony
DR14 -0.46 dB -18.25 dB 4:55 07-Love You So
DR15 -1.16 dB -18.59 dB 3:07 08-Bodie
DR13 0.00 dB -16.98 dB 3:02 09-Soon I Will Be Gone
--

Number of tracks: 9
Official DR value: DR14

Samplerate: 44100 Hz
Channels: 2
Bits per sample: 16
Bitrate: 740 kbps
Codec: FLAC

[CUETools log; Date: 02.11.2014 18:02:21; Version: 2.1.5]
[CTDB TOCID: 7R6FVcDrXqUDn2Ndn83KVM1W65c-] found.
Track | CTDB Status
1 | (3/3) Accurately ripped
2 | (3/3) Accurately ripped
3 | (3/3) Accurately ripped
4 | (3/3) Accurately ripped
5 | (3/3) Accurately ripped
6 | (3/3) Accurately ripped
7 | (3/3) Accurately ripped
8 | (3/3) Accurately ripped
9 | (3/3) Accurately ripped
[AccurateRip ID: 000cbfdc-005d77c9-6e087209] found.
Track [ CRC | V2 ] Status
01 [021c4e27|75b385f1] (12+04/16) Accurately ripped
02 [4740f9b7|c68b3a74] (12+04/16) Accurately ripped
03 [f69f2366|6bc786ce] (12+04/16) Accurately ripped
04 [341fb0bc|963c2ce6] (12+03/15) Accurately ripped
05 [f0ddf3bd|78d67701] (12+04/16) Accurately ripped
06 aedfdea|3d3b6349 (12+04/16) Accurately ripped
07 [94e98881|9f967a54] (12+04/16) Accurately ripped
08 [a9297266|aecb7a23] (12+04/16) Accurately ripped
09 [f32dfc3c|109c740a] (12+04/16) Accurately ripped

Track Peak [ CRC32 ] [W/O NULL] [ LOG ]
-- 100,0 [FED86754] [E491C566] CRC32
01 90,1 [ADF25FE4] [DE4FF491]
02 100,0 [3C793316] [44E97FB9]
03 100,0 [A4870F00] [26F2DA2A]
04 95,3 [16536E14] [0752F1F4]
05 82,8 [8AAE0227] [8C73EAD2]
06 98,8 [E06A213E] [D0D04808]
07 94,8 [6DDD6BD0] [904BE5F2]
08 87,4 A0B1347 [6AB2D094]
09 100,0 [4DBD1FD2] [1353C6E7]

http://i66.fastpic.ru/big/2015/0104/bf/5b0623d256bf8483ce2b7bdc32dc6fbf.jpg

DOWNLOAD LINKS:
Buy Premium From My Links To Get Resumable Support,Max Speed & Support Me


Links are Interchangeable - No Password - Single Extraction

Free - Highway (1970) Fast Download


Cheap VPN

 
 
 
Dear visitor, you went to the site as an unregistered user. We encourage you to register or enter the site under your name.
 
   
 
 (Votes #: 0)