2013Zone For Latest Downloads

 
     
 
Legal Downloads » Music » Miles Davis - Dark Magus: Live At Carnegie Hall (1974) [2CD] {2014 Japan Jazz Collection 1000 Columbia-RCA Series}
Menu
Home Applications
Games Movies
Music TV Shows
Torrents Graphics

Sitemap

RSS
 
Advanced Search
Last News
Site Info
Top Contributors:
  1    supper88 32766
  2    admin 32693
  3    Whisky 10080
  4    Shark_ 8911
  5    creativelivenew 8706
  6    whathesupa 2799
  7    candymypost 840
  8    hvnteam 629
  9    vuong87 3


Articles:
  This Hour: 0
  Today: 0
  This Month: 62
  All Time: 515562


Torrents:
  Today: 0
  Yesterday: 0
  All Time: 156685


Membership:
  Registered Today :0
  This Hour:0
  This Month:0
  Total:14
  Banned:1

{online}
{inform_torrent}
Friend:
We Recomend
Trend
Trend
Ad1

Search In Site

Music : Miles Davis - Dark Magus: Live At Carnegie Hall (1974) [2CD] {2014 Japan Jazz Collection 1000 Columbia-RCA Series}
 

http://i67.fastpic.ru/big/2015/0105/63/170610874bb6caa26756378b5bcdc363.jpg
Miles Davis - Dark Magus: Live At Carnegie Hall (1974) [2CD] {2014 Japan Jazz Collection 1000 Columbia-RCA Series}
EAC rip (secure mode) | FLAC (tracks)+CUE+LOG -> 701 Mb | MP3 @320 -> 242 Mb
Full Artwork @ 600 dpi (png) -> 223 Mb | 5% repair rar
© 2014 Columbia / Sony Music Japan | SICP 4238~39
Jazz / Fusion / Jazz Funk / Trumpet

"Reissue. Available only for a limited period of time until December 21, 2015. Comes with liner notes. Dark Magus is a live recording of a very specific 1974 Carnegie Hall date that included most, but not all, of the members who recorded the classics Agharta and Pangaea. While drummer Al Foster, bassist Michael Henderson, percussionist James Mtume, and guitarists Pete Cosey and Reggie Lucas were all present, the key element of Sonny Fortune was not yet in the band. Saxophonists David Liebman and Azar Lawrence were doubling in the saxophone chairs, while Dominique Gaumont, with his Jimi Hendrix-styled effects and riffs, was the band's third guitarist. The deep voodoo funk that gelled on the aforementioned recordings hadn't yet come together on this night at Carnegie, near the end of a tour."

http://i63.fastpic.ru/big/2015/0105/0e/fd018c6fa6000b3f1d6b9f49c4d5a50e.jpg

"Featuring four titles, all of them Swahili names for the numbers one through four, Dark Magus is a jam record. In his liner notes to the CD issue, Liebman explains that this wasn't the band at its best -- perhaps he was referring to his playing, which is certainly unimaginative compared to what the rest of the band is laying down chromatically. By this point, Miles was no longer really rehearsing his bands; they showed up and caught a whiff of what he wanted and went with it. Rhythms, colors, keys -- all of them would shift and change on a whim from Davis. There were no melodies outside of a three-note vamp on "Wili" and a few riff-oriented melodics on "Tatu" -- the rest is all deep rhythm-based funk and dark groove. Greasy, mysterious, and full of menacing energy, Dark Magus shows a band at the end of its rope, desperate to change because the story has torn itself out of the book, but not knowing where to go, turning in on itself. These dynamics have the feel of unresolved, boiling tension. Gaumont's effects-laden guitar playing overshadows the real guitarists in the band: Cosey and his partner, the rhythmically inventive Lucas. Gaumont doesn't fit naturally, so he tries to dazzle his way in -- check the way Miles cuts his solos off so abruptly while letting the others dovetail and segue. Ultimately, Dark Magus is an over-the-top ride into the fragmented mind of Miles and his 1974 band; its rhythm section is the most compelling of any jazz-rock band in history, but the front lines, while captivating, are too loose and uneven to sustain the listener for the entire ride."


http://i68.fastpic.ru/big/2015/0105/a2/4d77ad442f7125f76e771014fa1cc8a2.jpg


Personnel:
Miles Davis - trumpet & organ
Al Foster - drums
Michael Henderson - electric bass
Mtume - percussion
Pete Cosey - guitar
Reggie Lucas - guitar
David Liebman - soprano & tenor saxophone, flute
Azar Lawrence - tenor saxophone
Dominique Gaumont - guitar

tracklist:
CD1

01 - Moja (Part 1)
02 - Moja (Part 2)
03 - Wili (Part 1)
04 - Wili (Part 2)

CD2
01 - Tatu (Part 1)
02 - Tatu (Part 2) (''Calypso Frelimo'')
03 - Nne (Part 1) (''Ife'')
04 - Nne (Part 2)

Exact Audio Copy V1.0 beta 3 from 29. August 2011

EAC extraction logfile from 1. January 2015, 16:47

Miles Davis / Dark Magus: Live At Carnegie Hall (CD1)

Used drive : ATAPI iHAS124 B Adapter: 2 ID: 1

Read mode : Secure
Utilize accurate stream : Yes
Defeat audio cache : Yes
Make use of C2 pointers : No

Read offset correction : 6
Overread into Lead-In and Lead-Out : No
Fill up missing offset samples with silence : Yes
Delete leading and trailing silent blocks : No
Null samples used in CRC calculations : Yes
Used interface : Native Win32 interface for Win NT & 2000
Gap handling : Appended to previous track

Used output format : User Defined Encoder
Selected bitrate : 1024 kBit/s
Quality : High
Add ID3 tag : No
Command line compressor : C:\Program Files (x86)\FLAC Frontend\tools\flac.exe
Additional command line options : -8 -V -T "ARTIST=%artist%" -T "TITLE=%title%" -T "ALBUM=%albumtitle%" -T "DATE=%year%" -T "TRACKNUMBER=%tracknr%" -T "TOTALTRACKS=%numtracks%" -T "GENRE=%genre%" -T "ALBUMARTIST=%albumartist%" -T "ALBUM ARTIST=%albumartist%" -T "COMMENT=EAC Secure Mode, Test & Copy, AccurateRip, FLAC -8" %source%

TOC of the extracted CD Track | Start | Length | Start sector | End sector
-----------
1 | 0:00.00 | 12:28.15 | 0 | 56114
2 | 12:28.15 | 12:39.70 | 56115 | 113109
3 | 25:08.10 | 14:21.48 | 113110 | 177732
4 | 39:29.58 | 10:42.27 | 177733 | 225909

Track 1 Filename C:\Miles Davis - Dark Magus. Live At Carnegie Hall (1974) [2CD] {2014 Japan Jazz Collection 1000 Columbia-RCA Series}\CD1\01 - Moja (Part 1).wav Pre-gap length 0:00:02.00 Peak level 98.8 %
Extraction speed 2.2 X
Track quality 100.0 %
Test CRC C5965067
Copy CRC C5965067
Accurately ripped (confidence 5) [40561DA1] (AR v2)
Copy OK

Track 2 Filename C:\Miles Davis - Dark Magus. Live At Carnegie Hall (1974) [2CD] {2014 Japan Jazz Collection 1000 Columbia-RCA Series}\CD1\02 - Moja (Part 2).wav Peak level 98.8 %
Extraction speed 2.5 X
Track quality 99.9 %
Test CRC DCFD4710
Copy CRC DCFD4710
Accurately ripped (confidence 5) [C972BBA8] (AR v2)
Copy OK

Track 3 Filename C:\Miles Davis - Dark Magus. Live At Carnegie Hall (1974) [2CD] {2014 Japan Jazz Collection 1000 Columbia-RCA Series}\CD1\03 - Wili (Part 1).wav Peak level 100.0 %
Extraction speed 3.4 X
Track quality 100.0 %
Test CRC 49B9F459
Copy CRC 49B9F459
Accurately ripped (confidence 5) [74BDFB74] (AR v2)
Copy OK

Track 4 Filename C:\Miles Davis - Dark Magus. Live At Carnegie Hall (1974) [2CD] {2014 Japan Jazz Collection 1000 Columbia-RCA Series}\CD1\04 - Wili (Part 2).wav Peak level 98.8 %
Extraction speed 3.7 X
Track quality 100.0 %
Test CRC B589BEAC
Copy CRC B589BEAC
Accurately ripped (confidence 5) [948A0508] (AR v2)
Copy OK

All tracks accurately ripped

No errors occurred

End of status report

==== Log checksum B62B5C0CED67161A9DE8AB8F8AE4DB610AF0FEC2B13A4933928BC14A18CE6B25 ====

Exact Audio Copy V1.0 beta 3 from 29. August 2011

EAC extraction logfile from 1. January 2015, 17:47

Miles Davis / Dark Magus: Live At Carnegie Hall (CD2)

Used drive : ATAPI iHAS124 B Adapter: 2 ID: 1

Read mode : Secure
Utilize accurate stream : Yes
Defeat audio cache : Yes
Make use of C2 pointers : No

Read offset correction : 6
Overread into Lead-In and Lead-Out : No
Fill up missing offset samples with silence : Yes
Delete leading and trailing silent blocks : No
Null samples used in CRC calculations : Yes
Used interface : Native Win32 interface for Win NT & 2000
Gap handling : Appended to previous track

Used output format : User Defined Encoder
Selected bitrate : 1024 kBit/s
Quality : High
Add ID3 tag : No
Command line compressor : C:\Program Files (x86)\FLAC Frontend\tools\flac.exe
Additional command line options : -8 -V -T "ARTIST=%artist%" -T "TITLE=%title%" -T "ALBUM=%albumtitle%" -T "DATE=%year%" -T "TRACKNUMBER=%tracknr%" -T "TOTALTRACKS=%numtracks%" -T "GENRE=%genre%" -T "ALBUMARTIST=%albumartist%" -T "ALBUM ARTIST=%albumartist%" -T "COMMENT=EAC Secure Mode, Test & Copy, AccurateRip, FLAC -8" %source%

TOC of the extracted CD Track | Start | Length | Start sector | End sector
-----------
1 | 0:00.00 | 18:47.00 | 0 | 84524
2 | 18:47.00 | 6:31.72 | 84525 | 113921
3 | 25:18.72 | 15:19.33 | 113922 | 182879
4 | 40:38.30 | 10:10.60 | 182880 | 228689

Track 1 Filename C:\Miles Davis - Dark Magus. Live At Carnegie Hall (1974) [2CD] {2014 Japan Jazz Collection 1000 Columbia-RCA Series}\CD2\01 - Tatu (Part 1).wav Pre-gap length 0:00:02.00 Peak level 98.8 %
Extraction speed 4.5 X
Track quality 100.0 %
Test CRC C5BE24E3
Copy CRC C5BE24E3
Accurately ripped (confidence 4) [A16EE7A5] (AR v2)
Copy OK

Track 2 Filename C:\Miles Davis - Dark Magus. Live At Carnegie Hall (1974) [2CD] {2014 Japan Jazz Collection 1000 Columbia-RCA Series}\CD2\02 - Tatu (Part 2) (''Calypso Frelimo'').wav Peak level 98.8 %
Extraction speed 5.4 X
Track quality 100.0 %
Test CRC 2FC6EC03
Copy CRC 2FC6EC03
Accurately ripped (confidence 4) [D648CB38] (AR v2)
Copy OK

Track 3 Filename C:\Miles Davis - Dark Magus. Live At Carnegie Hall (1974) [2CD] {2014 Japan Jazz Collection 1000 Columbia-RCA Series}\CD2\03 - Nne (Part 1) (''Ife'').wav Pre-gap length 0:00:02.32 Peak level 98.8 %
Extraction speed 6.4 X
Track quality 100.0 %
Test CRC 63CF4A44
Copy CRC 63CF4A44
Accurately ripped (confidence 4) [F544B70A] (AR v2)
Copy OK

Track 4 Filename C:\Miles Davis - Dark Magus. Live At Carnegie Hall (1974) [2CD] {2014 Japan Jazz Collection 1000 Columbia-RCA Series}\CD2\04 - Nne (Part 2).wav Peak level 98.8 %
Extraction speed 7.0 X
Track quality 100.0 %
Test CRC F078D635
Copy CRC F078D635
Accurately ripped (confidence 4) [398F4F0A] (AR v2)
Copy OK

All tracks accurately ripped

No errors occurred

End of status report

==== Log checksum 98A4D25513EBDEAFC1F313BDFF27BEE335BC061D72041DCED9237101D51D967D ====

http://i63.fastpic.ru/big/2015/0105/65/4634315ec1ca003f3bb2e79e9e9f5265.jpg

http://i65.fastpic.ru/big/2015/0105/58/97a66ef80276d031a908c9110378b858.jpg

DOWNLOAD LINKS:
Buy Premium From My Links To Get Resumable Support,Max Speed & Support Me


Links are Interchangeable - No Password - Single Extraction

Miles Davis - Dark Magus: Live At Carnegie Hall (1974) [2CD] {2014 Japan Jazz Collection 1000 Columbia-RCA Series} Fast Download


Ad2

 
 
 
Dear visitor, you went to the site as an unregistered user. We encourage you to register or enter the site under your name.
 
   
 
 (Votes #: 0)