2013Zone For Latest Downloads

 
     
 
Legal Downloads » Music » The Byrds - The Notorious Byrd Brothers (1968) [MFSL, UDSACD 2015]
Menu
Home Applications
Games Movies
Music TV Shows
Torrents Graphics

Sitemap

RSS
 
Advanced Search
Last News
Site Info
Top Contributors:
  1    supper88 32766
  2    admin 32693
  3    Whisky 10080
  4    Shark_ 8911
  5    creativelivenew 8706
  6    whathesupa 2799
  7    candymypost 840
  8    hvnteam 629
  9    vuong87 3


Articles:
  This Hour: 0
  Today: 10
  This Month: 62
  All Time: 515562


Torrents:
  Today: 0
  Yesterday: 0
  All Time: 156685


Membership:
  Registered Today :0
  This Hour:0
  This Month:0
  Total:14
  Banned:1

{online}
{inform_torrent}
Friend:
We Recomend
Trend
Trend
XsAd

Search In Site

Music : The Byrds - The Notorious Byrd Brothers (1968) [MFSL, UDSACD 2015]
 
http://i68.fastpic.ru/big/2015/0105/9f/1c367f1dbd89cc092d2665f4363c199f.jpg

The Byrds - The Notorious Byrd Brothers (1968)
EAC | Flac(Image) + Cue + Log & MP3 CBR 320Kbps
2006 | MFSL, UDSACD 2015 | ~ 325 or 158 Mb | Scans Included
Classic Rock / Psychedelic Rock / Folk Rock

"The recording sessions for the Byrds' fifth album, The Notorious Byrd Brothers, were conducted in the midst of internal turmoil that found them reduced to a duo by the time the record was completed..."

The Byrds - The Notorious Byrd Brothers (1968):

http://i68.fastpic.ru/big/2015/0105/77/15e5c119d2e2e4d97b4ca48e5a6e3177.jpg

Tracklist:

1. Artificial Energy (2:18)
2. Goin' Back (3:26)
3. Natural Harmony (2:11)
4. Draft Morning (2:42)
5. Wasn't Born To Follow (2:04)
6. Get To You (2:39)
7. Change Is Now (3:21)
8. Old John Robertson (1:49)
9. Tribal Gathering (2:03)
10. Dolphin's Smile (2:00)
11. Space Odyssey (3:52)

Bonus Tracks:

12. Moog Raga (3:24) (instrumental)
13. Bound To Fall (2:08) (instrumental)
14. Triad (3:29)
15. Goin' Back (3:55) (version one)
16. Draft Morning (2:55) (alternate end)
17. Universal Mind Decoder (3:33) (instrumental)

EAC extraction logfile from 18. November 2007, 9:02 for CD
Byrds / The Notorious Byrd Brothers (Remastered)

Used drive : ASUS DRW-1814BL Adapter: 4 ID: 0
Read mode : Secure with NO C2, accurate stream, disable cache
Read offset correction : 6
Overread into Lead-In and Lead-Out : No

Used output format : Internal WAV Routines
44.100 Hz; 16 Bit; Stereo

Other options :
Fill up missing offset samples with silence : Yes
Delete leading and trailing silent blocks : No
Installed external ASPI interface

Range status and errors
Selected range
Filename C:\Documents and Settings\Master\Desktop\Для работы с музыкой\Новая папка\Byrds - The Notorious Byrd Brothers (Remastered).wav Peak level 100.0 %
Range quality 100.0 %
CRC 91A33B4A
Copy OK

No errors occured

End of status report

foobar2000 1.2.9 / Dynamic Range Meter 1.1.1
log date: 2015-01-01 08:31:13

--
Analyzed: Byrds / The Notorious Byrd Brothers (Remastered)
--

DR Peak RMS Duration Track
--
DR10 -0.36 dB -12.21 dB 2:19 01-Artificial Energy
DR10 -0.21 dB -13.49 dB 3:23 02-Goin' Back
DR9 -0.28 dB -12.48 dB 2:16 03-Natural Harmony
DR12 0.00 dB -14.51 dB 2:35 04-Draft Morning
DR10 -0.11 dB -11.92 dB 2:03 05-Wasn't Born To Follow
DR10 0.00 dB -12.78 dB 2:40 06-Get To You
DR9 -1.02 dB -11.69 dB 3:22 07-Change Is Now
DR11 -0.05 dB -13.64 dB 1:50 08-Old John Robertson
DR10 0.00 dB -12.26 dB 2:06 09-Tribal Gathering
DR10 -0.02 dB -13.06 dB 2:03 10-Dolphin's Smile
DR9 0.00 dB -11.64 dB 4:04 11-Space Odyssey
DR12 -1.23 dB -15.30 dB 3:27 12-Moog Raga (Instrumental)
DR12 -0.26 dB -13.85 dB 2:11 13-Bound To Fall (Instrumental)
DR9 -1.27 dB -13.47 dB 3:32 14-Triad
DR12 -0.47 dB -14.23 dB 3:58 15-Goin' Back (Version One)
DR10 -0.30 dB -13.02 dB 2:58 16-Draft Morning (Alternate End)
DR13 -0.25 dB -17.46 dB 13:45 17-Universal Mind Decoder (Instrumental)
--

Number of tracks: 17
Official DR value: DR10

Samplerate: 44100 Hz
Channels: 2
Bits per sample: 16
Bitrate: 706 kbps
Codec: FLAC

[CUETools log; Date: 01.01.2015 8:20:49; Version: 2.1.4]
[AccurateRip ID: 001cc678-0173e775-d10dba11] found.
Track [ CRC | V2 ] Status
01 [1441be23|b41fd346] (14+10/30) Accurately ripped
02 [409e51de|aaa8444e] (14+10/30) Accurately ripped
03 [9149c56a|39c4473e] (14+10/30) Accurately ripped
04 [ebc04fb1|18e026dd] (14+11/31) Accurately ripped
05 [aba422db|385b8939] (14+11/31) Accurately ripped
06 [9914bf79|f89dcb6e] (14+11/31) Accurately ripped
07 [025893a4|92f4e3df] (14+10/30) Accurately ripped
08 [4bfa2a97|409d917e] (14+10/30) Accurately ripped
09 [cec152a0|673f32f6] (14+10/30) Accurately ripped
10 [d6999aae|a0e2c522] (14+11/31) Accurately ripped
11 [fc2ddde0|cd5a2c80] (14+11/31) Accurately ripped
12 [8d525f20|7e440f19] (13+10/29) Accurately ripped
13 [63fb7fcd|764e618e] (13+10/29) Accurately ripped
14 [84920ee7|dce7ffd0] (13+10/29) Accurately ripped
15 [ab491038|4571e5de] (13+10/29) Accurately ripped
16 [32230a8b|e9ce4adb] (13+10/29) Accurately ripped
17 [84c1be3c|e045199f] (13+11/30) Accurately ripped
Offsetted by 635:
01 [1fc99847] (00/30) No match (V2 was not tested)
02 [5759c7af] (00/30) No match (V2 was not tested)
03 [0d219b99] (00/30) No match (V2 was not tested)
04 [5d01b74f] (00/31) No match (V2 was not tested)
05 [01a20c84] (00/31) No match (V2 was not tested)
06 [1b6c7f96] (00/31) No match (V2 was not tested)
07 [40cc11d7] (00/30) No match (V2 was not tested)
08 412c1c5 (00/30) No match (V2 was not tested)
09 [25905f7a] (00/30) No match (V2 was not tested)
10 [9d61a0c1] (00/31) No match (V2 was not tested)
11 [fff8b183] (00/31) No match (V2 was not tested)
12 [117a898d] (00/29) No match (V2 was not tested)
13 [39c333a3] (00/29) No match (V2 was not tested)
14 [fc945ce0] (00/29) No match (V2 was not tested)
15 [064c39cc] (00/29) No match (V2 was not tested)
16 [11ab2153] (00/29) No match (V2 was not tested)
17 [0882894b] (00/30) No match (V2 was not tested)

Track Peak [ CRC32 ] [W/O NULL] [ LOG ]
-- 100,0 [91A33B4A] [823DA8C6] CRC32
01 95,9 [0119FABE] [1836D954]
02 97,6 [18089738] [4EC00264]
03 96,7 [6838DB33] [850B7F37]
04 100,0 [9F743372] [777C6B74]
05 98,7 [A41BC24C] [42E2C496]
06 100,0 [34BF19F0] [9BDDF5EF]
07 88,8 [39344A05] [8A34FAA0]
08 99,4 [0FD02CAE] [7DCC800C]
09 100,0 [FCD33C21] [76CC0279]
10 99,7 [32604F61] [2C9A2C35]
11 100,0 [765C0F0E] [C13C279D]
12 86,8 [F37D03C6] [CA6F1E56]
13 97,0 [5857FC29] 8AF4CFE
14 86,3 [0C9C48E6] [95241218]
15 94,7 [2CCC5F4F] [3660265B]
16 96,6 [1A4C5C89] [73707F00]
17 97,2 [1B420AE6] [574C7459]

http://i66.fastpic.ru/big/2015/0105/0a/c12220fcc0c7657079f79f2da33d7b0a.jpg

All thanks go to the original releaser
DOWNLOAD LINKS:
Buy Premium From My Links To Get Resumable Support,Max Speed & Support Me


Links are Interchangeable - No Password - Single Extraction

The Byrds - The Notorious Byrd Brothers (1968) [MFSL, UDSACD 2015] Fast Download


XsAd2

 
 
 
Dear visitor, you went to the site as an unregistered user. We encourage you to register or enter the site under your name.
 
   
 
 (Votes #: 0)