2013Zone For Latest Downloads

 
     
 
Legal Downloads » Music » Genesis - Trespass (1970) [2014, Universal Music Japan, UICY-40094]
Menu
Home Applications
Games Movies
Music TV Shows
Torrents Graphics

Sitemap

RSS
 
Advanced Search
Last News
Site Info
Top Contributors:
  1    supper88 32766
  2    admin 32683
  3    Whisky 10080
  4    Shark_ 8911
  5    creativelivenew 8706
  6    whathesupa 2799
  7    candymypost 840
  8    hvnteam 629
  9    vuong87 3


Articles:
  This Hour: 0
  Today: 0
  This Month: 52
  All Time: 515552


Torrents:
  Today: 0
  Yesterday: 0
  All Time: 156675


Membership:
  Registered Today :0
  This Hour:0
  This Month:0
  Total:14
  Banned:1

{online}
{inform_torrent}
Friend:
Nulled Script Download
Torrent Download
Trend
Trend
VPN_ad

Search In Site

Music : Genesis - Trespass (1970) [2014, Universal Music Japan, UICY-40094]
 
http://i65.fastpic.ru/big/2015/0105/7c/b04c36941f0f2f264a84eefa8167407c.jpg

Genesis - Trespass (1970)
EAC | Flac(Image) + Cue + Log & MP3 CBR 320Kbps
Universal Music Japan, UICY-40094 | ~ 255 or 103 Mb | Scans(png) -> 257 Mb
Progressive Rock

"Genesis' first truly progressive album, and their first record for the Charisma label (although Trespass was released in America by ABC, which is how MCA came to have it), is important mostly as a formative effort..."

Genesis - Trespass (1970):

http://i67.fastpic.ru/big/2015/0105/c8/eb5dcd021b4eb92c552590efda7e4dc8.jpg

Tracklist:

01. Looking For Someone 07:03
02. White Mountain 06:44
03. Visions Of Angels 06:50
04. Stagnation 08:46
05. Dusk 04:10
06. The Knife 08:55

Exact Audio Copy V1.0 beta 3 from 29. August 2011

EAC extraction logfile from 1. January 2015, 10:35

Genesis / Trespass PT-SHM

Used drive : PLEXTOR BD-R PX-B950SA Adapter: 6 ID: 0

Read mode : Secure
Utilize accurate stream : Yes
Defeat audio cache : Yes
Make use of C2 pointers : No

Read offset correction : 6
Overread into Lead-In and Lead-Out : No
Fill up missing offset samples with silence : Yes
Delete leading and trailing silent blocks : No
Null samples used in CRC calculations : Yes
Used interface : Native Win32 interface for Win NT & 2000

Used output format : Internal WAV Routines
Sample format : 44.100 Hz; 16 Bit; Stereo

TOC of the extracted CD Track | Start | Length | Start sector | End sector
-----------
1 | 0:00.00 | 7:03.40 | 0 | 31764
2 | 7:03.40 | 6:44.23 | 31765 | 62087
3 | 13:47.63 | 6:50.35 | 62088 | 92872
4 | 20:38.23 | 8:46.27 | 92873 | 132349
5 | 29:24.50 | 4:10.28 | 132350 | 151127
6 | 33:35.03 | 8:55.65 | 151128 | 191317

Range status and errors

Selected range Filename C:\Users\Meijin\Desktop\ALLexxess\Genesis\1970 Trespass (Mini LP PT-SHM Universal Japan 2014)\Genesis - Trespass PT-SHM.wav Peak level 94.3 %
Extraction speed 3.1 X
Range quality 100.0 %
Test CRC 47CCB318
Copy CRC 47CCB318
Copy OK

No errors occurred


AccurateRip summary

Track 1 not present in database
Track 2 not present in database
Track 3 not present in database
Track 4 not present in database
Track 5 not present in database
Track 6 not present in database

None of the tracks are present in the AccurateRip database

End of status report

foobar2000 1.2.9 / Dynamic Range Meter 1.1.1
log date: 2015-01-02 15:30:03

--
Analyzed: Genesis / Trespass PT-SHM
--

DR Peak RMS Duration Track
--
DR9 -0.51 dB -12.42 dB 7:04 01-Looking For Someone
DR10 -0.76 dB -15.13 dB 6:44 02-White Mountain
DR9 -0.80 dB -13.10 dB 6:50 03-Visions Of Angels
DR8 -0.77 dB -13.83 dB 8:46 04-Stagnation
DR13 -1.04 dB -16.55 dB 4:10 05-Dusk
DR9 -0.70 dB -11.85 dB 8:56 06-The Knife
--

Number of tracks: 6
Official DR value: DR9

Samplerate: 44100 Hz
Channels: 2
Bits per sample: 16
Bitrate: 813 kbps
Codec: FLAC

[CUETools log; Date: 02.01.2015 15:30:25; Version: 2.1.4]
[CTDB TOCID: dE5GDygDhEMqLQCR1uviRf1vBwI-] found.
Track | CTDB Status
1 | (1/1) Accurately ripped
2 | (1/1) Accurately ripped
3 | (1/1) Accurately ripped
4 | (1/1) Accurately ripped
5 | (1/1) Accurately ripped
6 | (1/1) Accurately ripped
[AccurateRip ID: 000a1812-0035d947-4509f606] disk not present in database.

Track Peak [ CRC32 ] [W/O NULL] [ LOG ]
-- 94,3 [47CCB318] [9FAC6A28] CRC32
01 94,3 [9DEF2324] [1E83796E]
02 91,5 [9F46AC1E] [E31CC4C1]
03 91,2 [91F775C0] [9CC9BC8C]
04 91,5 [87202537] [E321A541]
05 88,6 [D87BC14B] 4146163
06 92,2 [8834D206] [863BCD7F]

http://i65.fastpic.ru/big/2015/0105/2a/0694e39530050cd76b40e2c91b320a2a.jpg

All thanks go to ALLexxess
DOWNLOAD LINKS:
Buy Premium From My Links To Get Resumable Support,Max Speed & Support Me


Links are Interchangeable - No Password - Single Extraction

Genesis - Trespass (1970) [2014, Universal Music Japan, UICY-40094] Fast Download


Cheap VPN

 
 
 
Dear visitor, you went to the site as an unregistered user. We encourage you to register or enter the site under your name.
 
   
 
 (Votes #: 0)