2013Zone For Latest Downloads

 
     
 
Legal Downloads » Music » James Taylor - Covers (2008) [Re-Up]
Menu
Home Applications
Games Movies
Music TV Shows
Torrents Graphics

Sitemap

RSS
 
Advanced Search
Last News
Site Info
Top Contributors:
  1    supper88 32766
  2    admin 32630
  3    creativelivenew 8706
  4    whathesupa 2799
  5    candymypost 840
  6    hvnteam 629
  7    vuong87 3


Articles:
  This Hour: 0
  Today: 0
  This Month: 0
  All Time: 514770


Torrents:
  Today: 0
  Yesterday: 0
  All Time: 155775


Membership:
  Registered Today :0
  This Hour:0
  This Month:0
  Total:12
  Banned:6

{online}
{inform_torrent}
Friend:
We Recomend
Trend
Trend
onlinemovies

Search In Site

Music : James Taylor - Covers (2008) [Re-Up]
 
http://i67.fastpic.ru/big/2015/0112/cd/0443ec7f03198be3b93810958ed65ecd.jpg

James Taylor - Covers (2008)
EAC | APE | Image (Cue&Log) ~ 299 Mb (incl 5%) | Mp3 (CBR320) ~ 134 Mb (incl 5%) | Scans included
Genre: Singer/Songwriter, Soft Rock, Folk Rock | Label: HEAR Music | # HRM-30829-02 | Time: 00:42:13

"Covers is the sixteenth album and the first "covers" album by singer-songwriter James Taylor, released on September 30, 2008. The album was recorded by Taylor's regular touring band. Some of the tunes Taylor had been performing off and on in concerts for years, while others were new to his repertoire. The effort garnered modestly good reviews and two Grammy Award nominations."

http://i64.fastpic.ru/big/2015/0112/97/c16b4d46c8ec4a3af81bfeda8e8d4e97.jpg

"A cozy companion to One Man Band, James Taylor's 2007 intimate stroll through his back pages for Starbucks' Hear Music, Covers once again finds the singer/songwriter on familiar, friendly territory, as he returns to his easy rolling full band and digs into the songbook of the rock & roll era. It's his era, of course, the time he had hit singles, including many hit cover versions, as he points out himself in his brief liner notes to the album. All of this makes Covers feel perhaps even more comfortable than One Man Band, which had the distinction of its unique guitar-and-piano arrangements, something that made his hits sound relatively fresh. Here, standards -- and despite a couple of oddball choices like the Spinners' "Sadie," John Anderson's "Seminole Wind," and the only modern song here, the Dixie Chicks' "Some Days You Gotta Dance," this is all standards like "Wichita Lineman," "Suzanne," "Hound Dog," "On Broadway," "Summertime Blues," and "Not Fade Away" -- are given Taylor's warm, mellow signature, so Covers winds up feeling a bit like an outdoor concert on a sunny summer Sunday afternoon: something that is wholly relaxing and not in the least surprising.

Review by Stephen Thomas Erlewine, Allmusic.com
"




Tracklist:

01. It's Growing (04:07)
02. (I'm a) Road Runner (03:19)
03. Whichita Lineman (03:41)
04. Why Baby Why (02:41)
05. Some Days You Gotta Dance (02:41)
06. Seminole Wind (04:50)
07. Suzanne (03:36)
08. Hound Dog (03:03)
09. Sadie (04:34)
10. On Broadway (04:11)
11. Summertime Blues (02:39)
12. Not Fade Away (02:45)


Exact Audio Copy V0.99 prebeta 4 from 23. January 2008

Отчёт EAC об извлечении, выполненном 28. июня 2009, 19:02

James Taylor / Covers

Дисковод: PLEXTOR DVDR PX-800A Adapter: 0 ID: 0

Режим чтения : Достоверность
?спользование точного потока : Да
Отключение кэ?а аудио : Да
?спользование указателей C2 : Нет

Коррекция смещения при чтении : 48
Способность читать области Lead-in и Lead-out : Нет
Заполнение пропущенных сэмплов ти?иной : Да
Удаление блоков с ти?иной в начале и конце : Нет
При вычислениях CRC использовались нулевые сэмплы : Да
?нтерфейс : Установленный вне?ний ASPI-интерфейс

Выходной формат : Внутренние WAV-операции
Формат сэмплов : 44.100 Гц; 16 бит; стерео

TOC извлечённого CD Трек | Старт | Длительность | Начальный сектор | Конечный сектор
-------
1 | 0:00.00 | 4:07.67 | 0 | 18591
2 | 4:07.67 | 3:19.07 | 18592 | 33523
3 | 7:26.74 | 3:41.17 | 33524 | 50115
4 | 11:08.16 | 2:41.48 | 50116 | 62238
5 | 13:49.64 | 2:41.56 | 62239 | 74369
6 | 16:31.45 | 4:50.05 | 74370 | 96124
7 | 21:21.50 | 3:36.29 | 96125 | 112353
8 | 24:58.04 | 3:03.04 | 112354 | 126082
9 | 28:01.08 | 4:34.61 | 126083 | 146693
10 | 32:35.69 | 4:11.27 | 146694 | 165545
11 | 36:47.21 | 2:39.64 | 165546 | 177534
12 | 39:27.10 | 2:45.56 | 177535 | 189965

Характеристики диапазона извлечения и сообщения об о?ибках

Выбранный диапазон ?мя файла D:\Lossless\James Taylor - Covers - 2008\James Taylor - Covers.wav Пиковый уровень 100.0 %
Качество диапазона 100.0 %
CRC копии 16227CB6
Копирование... OK

О?ибок не произо?ло

Конец отчёта

[CUETools log; Date: 08.01.2015 18:52:00; Version: 2.1.4]
[CTDB TOCID: dPz7VQstywhu3EDF6AxI2oK34Ok-] found.
Track | CTDB Status
1 | (43/45) Accurately ripped
2 | (45/45) Accurately ripped
3 | (45/45) Accurately ripped
4 | (43/45) Accurately ripped
5 | (45/45) Accurately ripped
6 | (45/45) Accurately ripped
7 | (45/45) Accurately ripped
8 | (45/45) Accurately ripped
9 | (44/45) Accurately ripped
10 | (44/45) Accurately ripped
11 | (45/45) Accurately ripped
12 | (45/45) Accurately ripped
[AccurateRip ID: 00131f18-00b2601e-ac09e40c] found.
Track [ CRC | V2 ] Status
01 [90c499b0|9ecde91a] (121+092/231) Accurately ripped
02 [02074f25|3074dc29] (122+094/232) Accurately ripped
03 [d744b246|2d857d8c] (122+095/233) Accurately ripped
04 [c49bd4a8|358bdeca] (119+093/232) Accurately ripped
05 [a941eeca|3f089eae] (123+094/233) Accurately ripped
06 [aa49496a|b2756803] (123+095/234) Accurately ripped
07 [60480a9d|522af023] (123+093/232) Accurately ripped
08 [54a27c56|ff0eaf98] (123+092/231) Accurately ripped
09 [afb0ea98|5efd67f4] (122+094/232) Accurately ripped
10 [ab4d82ec|f605bd53] (124+091/231) Accurately ripped
11 [7f84e61c|aba33215] (123+093/232) Accurately ripped
12 [6aea4bdc|9c77be6d] (123+093/232) Accurately ripped
Offsetted by -66:
01 [9031b3c8] (002/231) Accurately ripped
02 [0a79b977] (002/232) Accurately ripped
03 [c224565c] (002/233) Accurately ripped
04 abcffdc (002/232) Accurately ripped
05 [2f7dc190] (002/233) Accurately ripped
06 [cb4947ec] (002/234) Accurately ripped
07 [e27578dd] (002/232) Accurately ripped
08 [cde2c6fa] (002/231) Accurately ripped
09 0bcd10e (002/232) Accurately ripped
10 [e7b42ba8] (002/231) Accurately ripped
11 [3f3de269] (002/232) Accurately ripped
12 [d2ec83d1] (002/232) Accurately ripped
Offsetted by -12:
01 [90a9e440] (003/231) Accurately ripped
02 [60a7bf91] (003/232) Accurately ripped
03 c278a4a (003/233) Accurately ripped
04 [4e7350e0] (003/232) Accurately ripped
05 [077b5aee] (003/233) Accurately ripped
06 [0d608ef6] (003/234) Accurately ripped
07 [1adbf01d] (003/232) Accurately ripped
08 07fa12e (003/231) Accurately ripped
09 [3b8488dc] (003/232) Accurately ripped
10 [e4d48a54] (003/231) Accurately ripped
11 [1f1cb818] (003/232) Accurately ripped
12 [795c9d58] (003/232) Accurately ripped
Offsetted by 6:
01 [90d1f468] (004/231) Accurately ripped
02 [d2b716ef] (004/232) Accurately ripped
03 [64d34644] (004/233) Accurately ripped
04 [7fb0168c] (004/232) Accurately ripped
05 [fa2538b8] (004/233) Accurately ripped
06 [78bda6a4] (004/234) Accurately ripped
07 [82fe17dd] (004/232) Accurately ripped
08 [a6b3e9ea] (004/231) Accurately ripped
09 [69c71b76] (004/232) Accurately ripped
10 [8e89ff38] (004/231) Accurately ripped
11 [8e6bc672] (004/232) Accurately ripped
12 [09cdea54] (004/232) Accurately ripped
Offsetted by -646:
01 [e07c1cf8] (000/231) No match (V2 was not tested)
02 [e8199ddb] (002/232) Accurately ripped
03 [4e4dc9c8] (002/233) Accurately ripped
04 [6bc173c4] (002/232) Accurately ripped
05 [a4552c5c] (002/233) Accurately ripped
06 [2b58beb0] (002/234) Accurately ripped
07 [1c61cd5d] (002/232) Accurately ripped
08 [25f8bbc2] (002/231) Accurately ripped
09 [17065d3a] (002/232) Accurately ripped
10 [c43291a0] (002/231) Accurately ripped
11 [fc5b4219] (002/232) Accurately ripped
12 [057e61fd] (002/232) Accurately ripped

Track Peak [ CRC32 ] [W/O NULL] [ LOG ]
-- 100,0 [16227CB6] [729A3BE3] CRC32
01 100,0 [6DA63C49] [6C73154C]
02 100,0 [0EDBD432] [550B2064]
03 100,0 [8E09745F] [16B2F908]
04 100,0 98B1013 [24DA528D]
05 100,0 [CFBA50C9] [19472F18]
06 100,0 [16070EF7] [05788D0F]
07 97,5 [6934CDBA] [C80F5E42]
08 100,0 [99949FBF] [4EE7C9D9]
09 100,0 [03C662F1] [978A584D]
10 100,0 7CA87E2 [569BE4F2]
11 100,0 [10044A39] [1BC8794F]
12 100,0 [7D43EE29] [02E578FD]

foobar2000 1.2 / Dynamic Range Meter 1.1.1
log date: 2015-01-08 18:42:39

--
Analyzed: James Taylor / Covers
--

DR Peak RMS Duration Track
--
DR8 0.00 dB -9.69 dB 4:08 01-It's Growing
DR7 0.00 dB -8.92 dB 3:19 02-(I'm a) Road Runner
DR7 0.00 dB -9.97 dB 3:41 03-Whichita Lineman
DR9 0.00 dB -10.86 dB 2:42 04-Why Baby Why
DR7 0.00 dB -8.53 dB 2:42 05-Some Days You Gotta Dance
DR8 0.00 dB -11.06 dB 4:50 06-Seminole Wind
DR10 -0.21 dB -12.25 dB 3:36 07-Suzanne
DR9 0.00 dB -10.70 dB 3:03 08-Hound Dog
DR9 0.00 dB -11.64 dB 4:35 09-Sadie
DR9 0.00 dB -11.25 dB 4:11 10-On Broadway
DR8 0.00 dB -9.33 dB 2:40 11-Summertime Blues
DR7 0.00 dB -9.54 dB 2:46 12-Not Fade Away
--

Number of tracks: 12
Official DR value: DR8

Samplerate: 44100 Hz
Channels: 2
Bits per sample: 16
Bitrate: 840 kbps
Codec: Monkey's Audio

http://i65.fastpic.ru/big/2015/0112/ba/513ad7f34fe4bacc47f14325b54629ba.jpg

http://i68.fastpic.ru/big/2015/0112/5b/8920274bbcc38c7f0de7d857e910ea5b.jpg

All thanks to original releaser - SerBlues


DOWNLOAD LINKS:
Buy Premium From My Links To Get Resumable Support,Max Speed & Support Me


Links are Interchangeable - No Password - Single Extraction

 
 
 
Dear visitor, you went to the site as an unregistered user. We encourage you to register or enter the site under your name.
 
   
 
 (Votes #: 0)