Advertise
onlinemovies


Esbjorn Svensson Trio - Strange Place For Snow (2002) {Columbia}

Published On: 12-01-2015, 05:24

http://i64.fastpic.ru/big/2015/0112/4a/8510e6c2d37afd7ed17f04013619de4a.jpg
Esbjorn Svensson Trio - Strange Place For Snow (2002) {Columbia}
EAC rip (secure mode) | FLAC (tracks)+CUE+LOG -> 356 Mb | MP3 @320 -> 163 Mb
Full Artwork @ 300 dpi (png) -> 89 Mb | 5% repair rar
© 2002 Columbia / Sony Music | CK 86545
Jazz / Post Bop / Progressive Jazz

"E.S.T.'s second U.S. outing offers palatable, often lively acoustic jazz with tantalizing electronic flourishes. It's similar in thrust to the trio's 2001 U.S. debut, Somewhere Else Before, but not as strong melodically. Still, leader/pianist Esbjörn Svensson, bassist Daniel Berglund, and drummer Magnus Öström deliver some heated improvisational exchanges, particularly later in the program on the speedy, almost Mehldau-esque "When God Created the Coffee Break" and the post-bop boogaloo blues "Spunky Sprawl.""

Personnel:
Esbjörn Svensson - Keyboards, Piano (Grand)
Daniel Berglund - Double Bass
Magnus Öström - Percussion, Drums

tracklist:
01 - The Message
02 - Serenade For The Renegade
03 - Strange Place For Snow
04 - Behind The Yashmak
05 - Bound For The Beauty Of The South
06 - Years Of Yearning
07 - When God Created The Coffeebreak
08 - Spunky Sprawl
09 - Carcrash

Exact Audio Copy V1.0 beta 1 from 15. November 2010

EAC extraction logfile from 30. March 2011, 16:11

E.S.T. / Strange Place For Snow

Used drive : HL-DT-STDVD-ROM GDR8161B Adapter: 0 ID: 1

Read mode : Secure
Utilize accurate stream : Yes
Defeat audio cache : Yes
Make use of C2 pointers : No

Read offset correction : 102
Overread into Lead-In and Lead-Out : No
Fill up missing offset samples with silence : Yes
Delete leading and trailing silent blocks : No
Null samples used in CRC calculations : Yes
Used interface : Native Win32 interface for Win NT & 2000
Gap handling : Appended to previous track

Used output format : User Defined Encoder
Selected bitrate : 768 kBit/s
Quality : High
Add ID3 tag : No
Command line compressor : C:\Program Files (x86)\Exact Audio Copy\FLAC\FLAC.EXE
Additional command line options : -8 -V -T "ARTIST=%a" -T "TITLE=%t" -T "ALBUM=%g" -T "DATE=%y" -T "TRACKNUMBER=%n" -T "TOTALTRACKS=%x" -T "GENRE=%m" -T "ALBUMARTIST=%v" -T "ALBUM ARTIST=%v" -T "COMMENT=EAC Secure Mode, Test & Copy, AccurateRip, FLAC -8" %s

TOC of the extracted CD Track | Start | Length | Start sector | End sector
-----------
1 | 0:00.01 | 5:12.21 | 1 | 23421
2 | 5:12.22 | 4:26.00 | 23422 | 43371
3 | 9:38.22 | 6:40.58 | 43372 | 73429
4 | 16:19.05 | 10:26.36 | 73430 | 120415
5 | 26:45.41 | 5:06.65 | 120416 | 143430
6 | 31:52.31 | 5:40.53 | 143431 | 168983
7 | 37:33.09 | 6:34.60 | 168984 | 198593
8 | 44:07.69 | 6:24.67 | 198594 | 227460
9 | 50:32.61 | 18:01.03 | 227461 | 308538

Track 1 Filename D:\UPload\Esbjorn Svensson Trio - Strange Place For Snow\01 - The Message.wav Pre-gap length 0:00:02.01 Peak level 97.7 %
Extraction speed 5.2 X
Track quality 100.0 %
Test CRC CBC54E89
Copy CRC CBC54E89
Accurately ripped (confidence 2) [22F3E39E]
Copy OK

Track 2 Filename D:\UPload\Esbjorn Svensson Trio - Strange Place For Snow\02 - Serenade For The Renegade.wav Peak level 97.7 %
Extraction speed 5.6 X
Track quality 100.0 %
Test CRC 8708431A
Copy CRC 8708431A
Accurately ripped (confidence 2) [64EC26BF]
Copy OK

Track 3 Filename D:\UPload\Esbjorn Svensson Trio - Strange Place For Snow\03 - Strange Place For Snow.wav Peak level 97.7 %
Extraction speed 6.0 X
Track quality 99.9 %
Test CRC 079DA8B0
Copy CRC 079DA8B0
Accurately ripped (confidence 2) C26BD92
Copy OK

Track 4 Filename D:\UPload\Esbjorn Svensson Trio - Strange Place For Snow\04 - Behind The Yashmak.wav Peak level 97.7 %
Extraction speed 7.7 X
Track quality 100.0 %
Test CRC BD537726
Copy CRC BD537726
Accurately ripped (confidence 2) [6C06EA4A]
Copy OK

Track 5 Filename D:\UPload\Esbjorn Svensson Trio - Strange Place For Snow\05 - Bound For The Beauty Of The South.wav Peak level 93.9 %
Extraction speed 7.9 X
Track quality 100.0 %
Test CRC E8100EF5
Copy CRC E8100EF5
Accurately ripped (confidence 2) [5AC22B99]
Copy OK

Track 6 Filename D:\UPload\Esbjorn Svensson Trio - Strange Place For Snow\06 - Years Of Yearning.wav Peak level 94.2 %
Extraction speed 7.5 X
Track quality 99.9 %
Test CRC FFBFDFBB
Copy CRC FFBFDFBB
Accurately ripped (confidence 2) [E99BF385]
Copy OK

Track 7 Filename D:\UPload\Esbjorn Svensson Trio - Strange Place For Snow\07 - When God Created The Coffeebreak.wav Peak level 97.7 %
Extraction speed 8.0 X
Track quality 99.9 %
Test CRC BE9AC91D
Copy CRC BE9AC91D
Accurately ripped (confidence 2) 910F235
Copy OK

Track 8 Filename D:\UPload\Esbjorn Svensson Trio - Strange Place For Snow\08 - Spunky Sprawl.wav Peak level 97.7 %
Extraction speed 9.3 X
Track quality 100.0 %
Test CRC 5414A440
Copy CRC 5414A440
Accurately ripped (confidence 2) CA162E8
Copy OK

Track 9 Filename D:\UPload\Esbjorn Svensson Trio - Strange Place For Snow\09 - Carcrash.wav Peak level 97.7 %
Extraction speed 10.7 X
Track quality 100.0 %
Test CRC FA1F8159
Copy CRC FA1F8159
Accurately ripped (confidence 2) [514CC32B]
Copy OK

All tracks accurately ripped

No errors occurred

End of status report

==== Log checksum 7B719F6D4C2655AE3BAB6A1AF40A134DFA32103CB105B1CE6458A0E250A9E049 ====

http://i67.fastpic.ru/big/2015/0112/cc/39a2f4ac0feb49b317f022a9e4ae1fcc.jpg

http://i68.fastpic.ru/big/2015/0112/ed/fbfe015943d5ea52c7c9b317ebc04ded.jpg


All thanks goes to the original releaser!
DOWNLOAD LINKS:
Buy Premium From My Links To Get Resumable Support,Max Speed & Support Me


Links are Interchangeable - No Password - Single Extraction
[related-news][/related-news]
Dear visitor, you are browsing our website as Guest.
We strongly recommend you to register and login to view hidden contents.

Comments:

Add Comments
 

This site doesn't store any files on its server. We only index and link to content provided by other sites.