» » The Babys - I'll Have Some of That! (2014)
Advertise
onlinemovies


The Babys - I'll Have Some of That! (2014)

Published On: 12-01-2015, 06:10
http://i64.fastpic.ru/big/2015/0112/ca/28dd515108927998754af6b1b438b7ca.jpg

The Babys - I'll Have Some of That! (2014)
EAC | Flac(Image) + Cue + Log & MP3 CBR 320Kbps
Skyrocket Entertainment, SM10044 | ~ 358 or 126 Mb | Scans Included
Classic Rock / AOR

"The band's new CD, I'll Have Some of That, turns out to be a great rock and roll record. The band is not trying to be modern and, in fact, they are just trying to be what they always were, a great melodic hard rock band who never quite made it..."

Such is life.

Rock and Roll has some interesting twists and tales and The Baby's are one of them. They had a weak band name according to U.S. rock critics, and most of their hits were ballads. However, they had another side to them, a harder rockin' and melodic sound. Now, in 2014, many decades down the road, the band has reformed (without Waite and Cain, of course). They are back on their feet again, and one might think The Baby's could NEVER make it without John Waite, cuz... That would be like Boston without Brad Delp, or Journey without Steve Perry or Foreigner without Lou Gramm...oh...wait a minute. Perhaps these guys can get by after all!

The band's new CD, I'll Have Some of That, turns out to be a great rock and roll record. The band is not trying to be modern and, in fact, they are just trying to be what they always were, a great melodic hard rock band who never quite made it. Well, they would love to change that last part, but that remains to be seen...Perhaps, though, they can keep it all from being ?too little, too late' and at least get back on the road and make a few bucks.

The band features two original members in guitarist Wally Stocker and drummer Tony Brock. Joining them are guitarist Joey Sykes and, the man everyone is waiting to hear, bassist/vocalist John Bisaha. What everyone wants to know is if the new John is up for the challenge of taking on the original John's songs. Let's see what Tony Brock has to say about the new guy, "John Bisaha is an incredible singer. When we held auditions, we had singers lined up around the block to join the band and John was head and shoulders above the rest."

Classic Rock Revisited is happy to report that the new guy can hold his own. In fact, this is throwback to the Broken Heart days of the band. "Every Side of You" is a strong opening number while "All I Wanna Do" has the classic skating rink with your best girl vibe to it. "I See You There" is a sweet ballad and the rest of the album delivers as well. This is not all ballads either, as there are a lot of rockers on this album.

Bottom line, the playing on this sucker is good, the audio is well mixed, the songwriting is good and the vocal delivery is as strong as ever.

This one is not only the surprise album of the year, it may end up being one of the best.


By Jeb Wright, classicrockrevisited
"
The Babys - I'll Have Some of That! (2014):

http://i68.fastpic.ru/big/2015/0112/4f/097d577dd7878c45065732d9afb7c64f.jpg

Tracklist:

01. Every Side of You
02. All I Wanna Do
03. Sunrise & Goodbyes
04. After Midnight
05. I See You There
06. Grass Is Greener
07. These Days
08. Uncivil War
09. You Saved My Live
10. It's a Gas
11. Stay the Night
12. I'll Have Some of That!

Exact Audio Copy V1.0 beta 3 from 29. August 2011

EAC extraction logfile from 27. December 2014, 15:52

The Babys / I'll Have Some of That!

Used drive : PLEXTOR DVDR PX-860A Adapter: 4 ID: 0

Read mode : Secure
Utilize accurate stream : Yes
Defeat audio cache : Yes
Make use of C2 pointers : No

Read offset correction : 96
Overread into Lead-In and Lead-Out : No
Fill up missing offset samples with silence : Yes
Delete leading and trailing silent blocks : No
Null samples used in CRC calculations : Yes
Used interface : Installed external ASPI interface

Used output format : User Defined Encoder
Selected bitrate : 128 kBit/s
Quality : High
Add ID3 tag : Yes
Command line compressor : G:\Program Files (x86)\Exact Audio Copy\Flac\flac.exe
Additional command line options : -V -8 -T "Date=%year%" -T "Genre=%genre%" %source%

TOC of the extracted CD Track | Start | Length | Start sector | End sector
-----------
1 | 0:00.00 | 3:23.09 | 0 | 15233
2 | 3:23.09 | 5:21.54 | 15234 | 39362
3 | 8:44.63 | 3:47.60 | 39363 | 56447
4 | 12:32.48 | 5:06.57 | 56448 | 79454
5 | 17:39.30 | 4:24.14 | 79455 | 99268
6 | 22:03.44 | 4:02.67 | 99269 | 117485
7 | 26:06.36 | 3:52.38 | 117486 | 134923
8 | 29:58.74 | 4:01.21 | 134924 | 153019
9 | 34:00.20 | 3:32.05 | 153020 | 168924
10 | 37:32.25 | 4:43.61 | 168925 | 190210
11 | 42:16.11 | 4:01.47 | 190211 | 208332
12 | 46:17.58 | 5:11.37 | 208333 | 231694

Range status and errors

Selected range Filename D:\MUSIC\The Babys - I'll Have Some of That!.wav Peak level 100.0 %
Extraction speed 7.5 X
Range quality 99.9 %
Test CRC 5C75A116
Copy CRC 5C75A116
Copy OK

No errors occurred


AccurateRip summary

Track 1 cannot be verified as accurate (confidence 2) [9FE3951C], AccurateRip returned [97A6C626] (AR v2)
Track 2 cannot be verified as accurate (confidence 2) 16EDDA0, AccurateRip returned [A7240D9A] (AR v2)
Track 3 cannot be verified as accurate (confidence 2) [8AC7FFC7], AccurateRip returned [E5D5F62C] (AR v2)
Track 4 cannot be verified as accurate (confidence 2) [E94954E0], AccurateRip returned [A2CB0DFF] (AR v2)
Track 5 cannot be verified as accurate (confidence 2) [FE00EA11], AccurateRip returned [F103CC9D] (AR v2)
Track 6 cannot be verified as accurate (confidence 2) [DE6B6E64], AccurateRip returned [376452E1] (AR v2)
Track 7 cannot be verified as accurate (confidence 2) [5B772B96], AccurateRip returned [9B5C397E] (AR v2)
Track 8 cannot be verified as accurate (confidence 2) [772768F6], AccurateRip returned [A206C32F] (AR v2)
Track 9 cannot be verified as accurate (confidence 2) [EB348ADA], AccurateRip returned [5E21EE83] (AR v2)
Track 10 cannot be verified as accurate (confidence 2) [3DAF92EF], AccurateRip returned [F000AB7B] (AR v2)
Track 11 cannot be verified as accurate (confidence 2) [0128036F], AccurateRip returned [DAEBA843] (AR v2)
Track 12 cannot be verified as accurate (confidence 2) [0661F0A4], AccurateRip returned [3682DEBB] (AR v2)

No tracks could be verified as accurate
You may have a different pressing from the one(s) in the database

End of status report

foobar2000 1.2.9 / Dynamic Range Meter 1.1.1
log date: 2015-01-08 12:09:25

--
Analyzed: The Babys / I'll Have Some of That!
--

DR Peak RMS Duration Track
--
DR9 0.00 dB -10.65 dB 3:23 01- Every Side of You
DR8 0.00 dB -11.17 dB 5:22 02- All I Wanna Do
DR8 0.00 dB -9.89 dB 3:48 03- Sunrise & Goodbyes
DR9 0.00 dB -11.09 dB 5:07 04- After Midnight
DR8 0.00 dB -10.86 dB 4:24 05- I See You There
DR9 0.00 dB -10.69 dB 4:03 06- Grass Is Greener
DR8 0.00 dB -9.68 dB 3:53 07- These Days
DR8 0.00 dB -10.84 dB 4:01 08- Uncivil War
DR9 0.00 dB -10.11 dB 3:32 09- You Saved My Live
DR9 0.00 dB -10.03 dB 4:44 10- It’s a Gas
DR8 -0.01 dB -9.69 dB 4:02 11- Stay the Night
DR9 0.00 dB -11.23 dB 5:11 12- I’ll Have Some of That!
--

Number of tracks: 12
Official DR value: DR9

Samplerate: 44100 Hz
Channels: 2
Bits per sample: 16
Bitrate: 930 kbps
Codec: FLAC

[CUETools log; Date: 08.01.2015 12:09:44; Version: 2.1.4]
[CTDB TOCID: BPrNv76_1k1Qz1AXvGOnx0073ag-] found.
Track | CTDB Status
1 | (1/1) Accurately ripped
2 | (1/1) Accurately ripped
3 | (1/1) Accurately ripped
4 | (1/1) Accurately ripped
5 | (1/1) Accurately ripped
6 | (1/1) Accurately ripped
7 | (1/1) Accurately ripped
8 | (1/1) Accurately ripped
9 | (1/1) Accurately ripped
10 | (1/1) Accurately ripped
11 | (1/1) Accurately ripped
12 | (1/1) Accurately ripped
[AccurateRip ID: 0016cd5b-00d4b467-960c110c] found.
Track [ CRC | V2 ] Status
01 [83d0b38c|9fe3951c] (0+0/2) No match
02 [8798da6a|b16edda0] (0+0/2) No match
03 [c2617589|8ac7ffc7] (0+0/2) No match
04 [0b6770c0|e94954e0] (0+0/2) No match
05 [d1854720|fe00ea11] (0+0/2) No match
06 [f783bcb3|de6b6e64] (0+0/2) No match
07 [8d574a95|5b772b96] (0+0/2) No match
08 [d7d739a0|772768f6] (0+0/2) No match
09 [8155493a|eb348ada] (0+0/2) No match
10 [46ba6cf8|3daf92ef] (0+0/2) No match
11 565ab40|0128036f (0+0/2) No match
12 [ad7c9a5a|0661f0a4] (0+0/2) No match
Offsetted by 6:
01 [7d297982] (0/2) No match (V2 was not tested)
02 [7fd49340] (0/2) No match (V2 was not tested)
03 [1f38282f] (0/2) No match (V2 was not tested)
04 [c7521a8c] (0/2) No match (V2 was not tested)
05 [c5392fab] (0/2) No match (V2 was not tested)
06 [5260216e] (0/2) No match (V2 was not tested)
07 [ce799176] (0/2) No match (V2 was not tested)
08 [04a4a9c1] (0/2) No match (V2 was not tested)
09 [f5ec8936] (0/2) No match (V2 was not tested)
10 [fb445236] (0/2) No match (V2 was not tested)
11 [910ddc7e] (0/2) No match (V2 was not tested)
12 [e011fd0c] (0/2) No match (V2 was not tested)

Track Peak [ CRC32 ] [W/O NULL] [ LOG ]
-- 100,0 [5C75A116] [E8A08211] CRC32
01 100,0 [316830F1] [0D798555]
02 100,0 [D29FEBE1] [8DA050B1]
03 100,0 [753D21A0] [EC42A104]
04 100,0 1056343 [EDAAAD89]
05 100,0 [421968F8] [58D9150D]
06 100,0 [C04A30CA] [2D64F7E1]
07 100,0 [DD927C70] [E0BF7532]
08 100,0 [36BC9298] [A3437988]
09 100,0 [94F87D49] [57AC0729]
10 100,0 [06C2104B] [FA1A04CB]
11 99,9 [276D0EAB] [68640D32]
12 100,0 [CE75086F] [0C4DF720]

http://i64.fastpic.ru/big/2015/0112/9b/08d0487dd7d9af3f40da58c205f2319b.jpg

All thanks go to the original releaser
DOWNLOAD LINKS:
Buy Premium From My Links To Get Resumable Support,Max Speed & Support Me


Links are Interchangeable - No Password - Single Extraction
[related-news][/related-news]
Dear visitor, you are browsing our website as Guest.
We strongly recommend you to register and login to view hidden contents.

Comments:

Add Comments
 

This site doesn't store any files on its server. We only index and link to content provided by other sites.