Advertise
onlinemovies


Pat Benatar - Live From Earth (1983) [Japan 1st Press]

Published On: 12-01-2015, 06:32
http://i64.fastpic.ru/big/2015/0112/83/9b9b284c502347e6ad03da4e78805083.jpg

Pat Benatar - Live From Earth (1983) [Japan 1st Press]
EAC Rip | WavPack (*.wv): Tracks+Cue+Log | 287 Mb | MP3 CBR 320 kbps | 103 Mb | Scans | Time: 43:05
Genre: Rock, Pop Rock | Label: Toshiba-EMI Ltd. | Cat.№: CP32-5070

""Live from Earth" is the first live album from American rock singer Pat Benatar and was released in 1983. The album was recorded during Benatar's sold out 'Get Nervous' world tour in late 1982 and early 1983. It also contains two studio tracks, "Love Is a Battlefield" and "Lipstick Lies", which were produced by Neil Giraldo and Peter Coleman. The album peaked at No. 13 on the Billboard 200 albums chart and sold more than a million copies. "Love Is a Battlefield" was an international hit single and garnered Benatar her fourth consecutive Grammy Award for Best Female Rock Vocal Performance in 1984."



Track Listing

01. Fire And Ice (03:47)
02. Looking For A Stranger (03:27)
03. I Want Out (04:05)
04. We Live For Love (03:40)
05. Hell Is For Children (06:05)
06. Hit Me With Your Best Shot (03:08)
07. Promises In The Dark (05:13)
08. Heartbreaker (04:20)
09. Love Is A Battlefield (studio) (05:24)
10. Lipstick Lies (studio) (03:51)

Produced by Neil Giraldo and Peter Coleman

Personnel

* Pat Benatar : vocals
* Neil Geraldo : guitars, backing vocals
* Charlie Giordano : keyboards
* Roger Capps : bass, backing vocals
* Myron Grombacher : drums

Notes

Released: 31 Mar 1986
Black Triangle: Flat transfer of WWS-81630 LP Master

EAC extraction logfile from 16. August 2008, 16:19 for CD
Pat Benatar / Live from Earth

Used drive : PIONEER DVD-RW DVR-112D Adapter: 0 ID: 0
Read mode : Secure with NO C2, accurate stream, disable cache
Read offset correction : 48
Overread into Lead-In and Lead-Out : No

Used output format : C:\Program Files\Exact Audio Copy\flac-1.1.4-win\bin\flac.exe (User Defined Encoder)
128 kBit/s
Additional command line options : -8 -V -T "ARTIST=%a" -T "TITLE=%t" -T "ALBUM=%g" -T "DATE=%y" -T "TRACKNUMBER=%n" -T "GENRE=%m" -T "COMMENT=EAC Flac 1.1.4 -8" %s

Other options :
Fill up missing offset samples with silence : Yes
Delete leading and trailing silent blocks : No
Installed external ASPI interface

Track 1
Filename C:\Program Files\Exact Audio Copy\Pat Benatar - 1983 - Live from Earth\01 - Fire and Ice.wav Pre-gap length 0:00:02.00 Peak level 86.8 %
Track quality 100.0 %
Test CRC ECF199BC
Copy CRC ECF199BC
Copy OK

Track 2
Filename C:\Program Files\Exact Audio Copy\Pat Benatar - 1983 - Live from Earth\02 - Looking for a Stranger.wav Peak level 95.0 %
Track quality 100.0 %
Test CRC 81D5678E
Copy CRC 81D5678E
Copy OK

Track 3
Filename C:\Program Files\Exact Audio Copy\Pat Benatar - 1983 - Live from Earth\03 - I Want Out.wav Peak level 100.0 %
Track quality 100.0 %
Test CRC C22A65DD
Copy CRC C22A65DD
Copy OK

Track 4
Filename C:\Program Files\Exact Audio Copy\Pat Benatar - 1983 - Live from Earth\04 - We Live for Love.wav Peak level 98.7 %
Track quality 100.0 %
Test CRC 8AB1F9B5
Copy CRC 8AB1F9B5
Copy OK

Track 5
Filename C:\Program Files\Exact Audio Copy\Pat Benatar - 1983 - Live from Earth\05 - Hell is for Children.wav Peak level 83.8 %
Track quality 100.0 %
Test CRC 963CAD50
Copy CRC 963CAD50
Copy OK

Track 6
Filename C:\Program Files\Exact Audio Copy\Pat Benatar - 1983 - Live from Earth\06 - Hit Me with Your Best Shot.wav Pre-gap length 0:00:01.97 Peak level 81.9 %
Track quality 100.0 %
Test CRC 58FDB722
Copy CRC 58FDB722
Copy OK

Track 7
Filename C:\Program Files\Exact Audio Copy\Pat Benatar - 1983 - Live from Earth\07 - Promises in the Dark.wav Peak level 85.7 %
Track quality 100.0 %
Test CRC AC845412
Copy CRC AC845412
Copy OK

Track 8
Filename C:\Program Files\Exact Audio Copy\Pat Benatar - 1983 - Live from Earth\08 - Heartbreaker.wav Peak level 92.8 %
Track quality 100.0 %
Test CRC E2C6241F
Copy CRC E2C6241F
Copy OK

Track 9
Filename C:\Program Files\Exact Audio Copy\Pat Benatar - 1983 - Live from Earth\09 - Love is a Battlefield.wav Pre-gap length 0:00:01.46 Peak level 58.0 %
Track quality 100.0 %
Test CRC 9D3D1F56
Copy CRC 9D3D1F56
Copy OK

Track 10
Filename C:\Program Files\Exact Audio Copy\Pat Benatar - 1983 - Live from Earth\10 - Lipstick Lies.wav Pre-gap length 0:00:03.00 Peak level 72.9 %
Track quality 100.0 %
Test CRC AD68CA92
Copy CRC AD68CA92
Copy OK

No errors occured

End of status report
DOWNLOAD LINKS:
Buy Premium From My Links To Get Resumable Support,Max Speed & Support Me


Links are Interchangeable - No Password - Single Extraction
[related-news][/related-news]
Dear visitor, you are browsing our website as Guest.
We strongly recommend you to register and login to view hidden contents.

Comments:

Add Comments
 

This site doesn't store any files on its server. We only index and link to content provided by other sites.