» » NHK - Tee: The Spirit of Okinawan Karate (2014)
Advertise
onlinemovies


NHK - Tee: The Spirit of Okinawan Karate (2014)

Published On: 12-01-2015, 06:35

http://i63.fastpic.ru/big/2015/0112/74/33c243d871bf8add913a87b8f9dc1574.jpg
NHK - Tee: The Spirit of Okinawan Karate (2014)
HDTV | 1280x720 | .MKV/AVC @ 3248 Kbps | 48mn 59s | Audio: English AAC 120 kbps, 2 channels | Subs: None | 1.15 GiB
Genre: Documentary

"'Tee' is what the original form of karate was once called in its birthplace, Okinawa, in southern Japan. The traditional form still practiced to this day in Okinawa, is not about trying to defeat an opponent or becoming a winner, but instead to fight oneself. More than 5,000 visitors from around the world visit Okinawa each year to learn this form of karate. This program follows two of these people, an Englishman and an Italian, about their experiences and how they struggled with themselves over one summer."

General
Complete name : NHK.Tee.The.Spirit.of.Okinawan.Karate.mp4
Format : MPEG-4
Format profile : Base Media
Codec ID : isom
File size : 1.15 GiB
Duration : 48mn 59s
Overall bit rate mode : Variable
Overall bit rate : 3 372 Kbps

Video
ID : 1
Format : AVC
Format/Info : Advanced Video Codec
Format profile : [email protected]
Format settings, CABAC : Yes
Format settings, ReFrames : 6 frames
Codec ID : avc1
Codec ID/Info : Advanced Video Coding
Duration : 48mn 59s
Bit rate : 3 248 Kbps
Maximum bit rate : 12.5 Mbps
Width : 1 280 pixels
Height : 720 pixels
Display aspect ratio : 16:9
Frame rate mode : Constant
Frame rate : 25.000 fps
Color space : YUV
Chroma subsampling : 4:2:0
Bit depth : 8 bits
Scan type : Progressive
Bits/(Pixel*Frame) : 0.141
Stream size : 1.11 GiB (96%)
Writing library : x264 core 144 r2525 40bb568
Encoding settings : cabac=1 / ref=6 / deblock=1:0:0 / analyse=0x3:0x113 / me=umh / subme=9 / psy=1 / psy_rd=1.00:0.00 / mixed_ref=1 / me_range=24 / chroma_me=1 / trellis=1 / 8x8dct=1 / cqm=0 / deadzone=21,11 / fast_pskip=0 / chroma_qp_offset=-2 / threads=3 / lookahead_threads=1 / sliced_threads=0 / nr=0 / decimate=1 / interlaced=0 / bluray_compat=0 / constrained_intra=0 / bframes=3 / b_pyramid=2 / b_adapt=1 / b_bias=0 / direct=1 / weightb=1 / open_gop=0 / weightp=2 / keyint=250 / keyint_min=25 / scenecut=40 / intra_refresh=0 / rc_lookahead=40 / rc=crf / mbtree=1 / crf=19.0 / qcomp=0.60 / qpmin=0 / qpmax=69 / qpstep=4 / ip_ratio=1.40 / aq=1:1.00
Encoded date : UTC 2015-01-04 09:25:35
Tagged date : UTC 2015-01-04 09:28:41

Audio
ID : 2
Format : AAC
Format/Info : Advanced Audio Codec
Format profile : LC
Codec ID : 40
Duration : 48mn 59s
Bit rate mode : Variable
Bit rate : 120 Kbps
Maximum bit rate : 147 Kbps
Channel(s) : 2 channels
Channel positions : Front: L R
Sampling rate : 48.0 KHz
Compression mode : Lossy
Stream size : 41.9 MiB (4%)
Language : English
Encoded date : UTC 2015-01-04 03:00:53
Tagged date : UTC 2015-01-04 09:28:41

Screenshots:

http://i68.fastpic.ru/big/2015/0112/b6/87e68e2e59e452a67b81d4491d3030b6.jpg

http://i63.fastpic.ru/big/2015/0112/5f/cba4bac8034b1b727013c13caf5a465f.jpg

http://i68.fastpic.ru/big/2015/0112/75/7b58f2b9ebd57cc3155ffbc03112de75.jpg

http://i63.fastpic.ru/big/2015/0112/7c/6f09d92b28297e327cc1c582b4cfdf7c.jpg


DOWNLOAD LINKS:
Buy Premium From My Links To Get Resumable Support,Max Speed & Support Me


Links are Interchangeable - No Password - Single Extraction
[related-news][/related-news]
Dear visitor, you are browsing our website as Guest.
We strongly recommend you to register and login to view hidden contents.

Comments:

Add Comments
 

This site doesn't store any files on its server. We only index and link to content provided by other sites.