» » PBS - Independent Lens: Rich Hill (2014)
Advertise
onlinemovies


PBS - Independent Lens: Rich Hill (2014)

Published On: 12-01-2015, 06:51

http://i66.fastpic.ru/big/2015/0112/80/96aec20d3fa359cdb48cbd869bc80480.jpg
PBS - Independent Lens: Rich Hill (2014)
HDTV | 1280x720 | .MKV/AVC @ 2227 Kbps | 1h 25mn | Audio: English AC3 384 kbps, 2 channels | Subs: None | 1.59 GiB
Genre: Documentary

"Sundance Grand Jury Prize-winner Rich Hill follows three teenage boys, Andrew, Harley, and Appachey, as they struggle with isolation, broken families, and lack of opportunity in their Missouri town, where the idea of the American Dream may remain elusively out of reach, but the desire for a better tomorrow remains."

General
Unique ID : 194846459932731320948361520609610856202 (0x9296102C2FB1A857A1C82A267C26770A)
Complete name : independent.lens.rich.hill.mkv
Format : Matroska
Format version : Version 4 / Version 2
File size : 1.59 GiB
Duration : 1h 25mn
Overall bit rate : 2 664 Kbps

Video
ID : 1
Format : AVC
Format/Info : Advanced Video Codec
Format profile : [email protected]
Format settings, CABAC : Yes
Format settings, ReFrames : 5 frames
Codec ID : V_MPEG4/ISO/AVC
Duration : 1h 25mn
Bit rate : 2 227 Kbps
Width : 1 280 pixels
Height : 720 pixels
Display aspect ratio : 16:9
Frame rate : 23.976 fps
Color space : YUV
Chroma subsampling : 4:2:0
Bit depth : 8 bits
Scan type : Progressive
Bits/(Pixel*Frame) : 0.101
Stream size : 1.33 GiB (84%)
Writing library : x264 core 144 r2525 40bb568
Encoding settings : cabac=1 / ref=5 / deblock=1:0:0 / analyse=0x3:0x113 / me=umh / subme=8 / psy=1 / psy_rd=1.00:0.00 / mixed_ref=1 / me_range=16 / chroma_me=1 / trellis=1 / 8x8dct=1 / cqm=0 / deadzone=21,11 / fast_pskip=1 / chroma_qp_offset=-2 / threads=12 / lookahead_threads=2 / sliced_threads=0 / nr=0 / decimate=1 / interlaced=0 / bluray_compat=0 / constrained_intra=0 / bframes=3 / b_pyramid=2 / b_adapt=2 / b_bias=0 / direct=3 / weightb=1 / open_gop=0 / weightp=2 / keyint=250 / keyint_min=25 / scenecut=40 / intra_refresh=0 / rc_lookahead=50 / rc=crf / mbtree=1 / crf=20.0 / qcomp=0.60 / qpmin=0 / qpmax=69 / qpstep=4 / ip_ratio=1.40 / aq=1:1.00
Language : English
Default : Yes
Forced : No

Audio
ID : 2
Format : AC-3
Format/Info : Audio Coding 3
Mode extension : CM (complete main)
Format settings, Endianness : Big
Codec ID : A_AC3
Duration : 1h 25mn
Bit rate mode : Constant
Bit rate : 384 Kbps
Channel(s) : 2 channels
Channel positions : Front: L R
Sampling rate : 48.0 KHz
Bit depth : 16 bits
Compression mode : Lossy
Stream size : 235 MiB (14%)
Language : English
Default : Yes
Forced : No

Text
ID : 3
Format : UTF-8
Codec ID : S_TEXT/UTF8
Codec ID/Info : UTF-8 Plain Text
Language : English
Default : No
Forced : No

Screenshots:

http://i67.fastpic.ru/big/2015/0112/86/eb3daa8ebad4cfb77358bfdb383ff286.jpg

http://i63.fastpic.ru/big/2015/0112/9b/05d2fbf0dcedc9eadca47d3e82c53c9b.jpg


DOWNLOAD LINKS:
Buy Premium From My Links To Get Resumable Support,Max Speed & Support Me


Links are Interchangeable - No Password - Single Extraction
[related-news][/related-news]
Dear visitor, you are browsing our website as Guest.
We strongly recommend you to register and login to view hidden contents.

Comments:

Add Comments
 

This site doesn't store any files on its server. We only index and link to content provided by other sites.