Advertise
onlinemovies


Pat Benatar - Tropico (1984) [Japan 1st Press]

Published On: 12-01-2015, 10:31
http://i63.fastpic.ru/big/2015/0112/c5/09f48b7656201c3dd8668fef71167ac5.jpg

Pat Benatar - Tropico (1984) [Japan 1st Press]
EAC Rip | WavPack (*.wv): Tracks+Cue+Log | 254 Mb | MP3 CBR 320 kbps | 96 Mb | Scans | Time: 38:58
Genre: Rock, Pop Rock | Label: Toshiba-EMI Ltd. | Cat.№: CP32-5030

""Tropico" is American rock singer Pat Benatar's fifth studio album, and sixth album overall, released in late 1984. This is the first album to feature one-time John Waite bassist Donnie Nossov, who replaced Roger Capps in Benatar's band. It peaked at No. 14 on the U.S. Billboard 200 album chart and produced the Grammy-nominated Top Five Pop hit "We Belong". Other well-known songs from the album include "Painted Desert", "Outlaw Blues" and "Ooh Ooh Song" (also a Top 40 hit). A Spanish version "Ooh Ooh Song" was on the B-Side of the US single and appeared also on her 1999 compilation, Synchronistic Wanderings. Tropico was Benatar's sixth consecutive Platinum-certified album in the United States."



Track Listing

01. Diamond Field (03:22)
02. We Belong (03:40)
03. Painted Desert (05:26)
04. Temporary Heroes (04:24)
05. Love In The Ice Age (04:07)
06. Ooh Ooh Song (04:08)
07. The Outlaw Blues (03:48)
08. Suburban King (01:47)
09. A Crazy World Like This (04:04)
10. Takin' It Back (04:07)

Produced by Neil Giraldo and Peter Coleman

Personnel

* Pat Benatar : vocals
* Neil Geraldo : guitars, harmonica, percussion
* Charlie Giordano : keyboards, percussion
* Donnie Nossov : bass, backing vocals
* Myron Grombacher : drums, percussion

Additional personnel
* Roger Capps : bass (2, 3)
* Lenny Castro : percussion (3, 9)

Notes

CHR-1471(CD)
Black Triangle: Flat transfer of WWS-91100 LP Master

EAC extraction logfile from 16. August 2008, 16:36 for CD
Pat Benatar / Tropico

Used drive : PIONEER DVD-RW DVR-112D Adapter: 0 ID: 0
Read mode : Secure with NO C2, accurate stream, disable cache
Read offset correction : 48
Overread into Lead-In and Lead-Out : No

Used output format : C:\Program Files\Exact Audio Copy\flac-1.1.4-win\bin\flac.exe (User Defined Encoder)
128 kBit/s
Additional command line options : -8 -V -T "ARTIST=%a" -T "TITLE=%t" -T "ALBUM=%g" -T "DATE=%y" -T "TRACKNUMBER=%n" -T "GENRE=%m" -T "COMMENT=EAC Flac 1.1.4 -8" %s

Other options :
Fill up missing offset samples with silence : Yes
Delete leading and trailing silent blocks : No
Installed external ASPI interface

Track 1
Filename C:\Program Files\Exact Audio Copy\Pat Benatar - 1984 - Tropico\01 - Diamond Field.wav Pre-gap length 0:00:02.00 Peak level 93.1 %
Track quality 100.0 %
Test CRC 1476965D
Copy CRC 1476965D
Copy OK

Track 2
Filename C:\Program Files\Exact Audio Copy\Pat Benatar - 1984 - Tropico\02 - We Belong.wav Peak level 94.7 %
Track quality 100.0 %
Test CRC 91B6E218
Copy CRC 91B6E218
Copy OK

Track 3
Filename C:\Program Files\Exact Audio Copy\Pat Benatar - 1984 - Tropico\03 - Painted Desert.wav Peak level 98.6 %
Track quality 100.0 %
Test CRC 32429E27
Copy CRC 32429E27
Copy OK

Track 4
Filename C:\Program Files\Exact Audio Copy\Pat Benatar - 1984 - Tropico\04 - Temporary Heroes.wav Peak level 87.4 %
Track quality 100.0 %
Test CRC 2EAED4C1
Copy CRC 2EAED4C1
Copy OK

Track 5
Filename C:\Program Files\Exact Audio Copy\Pat Benatar - 1984 - Tropico\05 - Love in the Ice Age.wav Peak level 91.8 %
Track quality 100.0 %
Test CRC 75F81BC1
Copy CRC 75F81BC1
Copy OK

Track 6
Filename C:\Program Files\Exact Audio Copy\Pat Benatar - 1984 - Tropico\06 - Ooh Ooh Song.wav Peak level 87.1 %
Track quality 100.0 %
Test CRC 23DFC8D8
Copy CRC 23DFC8D8
Copy OK

Track 7
Filename C:\Program Files\Exact Audio Copy\Pat Benatar - 1984 - Tropico\07 - The Outlaw Blues.wav Peak level 92.7 %
Track quality 99.9 %
Test CRC 25AA1A1C
Copy CRC 25AA1A1C
Copy OK

Track 8
Filename C:\Program Files\Exact Audio Copy\Pat Benatar - 1984 - Tropico\08 - Suburban King.wav Peak level 75.4 %
Track quality 100.0 %
Test CRC 71CAB530
Copy CRC 71CAB530
Copy OK

Track 9
Filename C:\Program Files\Exact Audio Copy\Pat Benatar - 1984 - Tropico\09 - A Crazy World Like This.wav Peak level 100.0 %
Track quality 99.9 %
Test CRC 50F75758
Copy CRC 50F75758
Copy OK

Track 10
Filename C:\Program Files\Exact Audio Copy\Pat Benatar - 1984 - Tropico\10 - Takin' It Back.wav Peak level 100.0 %
Track quality 100.0 %
Test CRC 814375E7
Copy CRC 814375E7
Copy OK

No errors occured

End of status report
DOWNLOAD LINKS:
Buy Premium From My Links To Get Resumable Support,Max Speed & Support Me


Links are Interchangeable - No Password - Single Extraction
[related-news][/related-news]
Dear visitor, you are browsing our website as Guest.
We strongly recommend you to register and login to view hidden contents.

Comments:

Add Comments
 

This site doesn't store any files on its server. We only index and link to content provided by other sites.