» » History Channel - Museum Men: Evel Knievel's Rocket (2014)
Advertise
onlinemovies


History Channel - Museum Men: Evel Knievel's Rocket (2014)

Published On: 12-01-2015, 13:15

http://i64.fastpic.ru/big/2015/0112/d6/508d5757a192721a0012df5b1d300bd6.jpg
History Channel - Museum Men: Evel Knievel's Rocket (2014)
HDTV | 1280x720 | .MP4/AVC @ 3024 Kbps | 42mn 58s | Audio: English AAC 160 kbps, 2 channels | Subs: None | 980 MiB
Genre: Documentary

"Meet the Museum Men, a team of highly-skilled builders who bring history to life. The team from Creative Arts designs and builds historical exhibits for both big and small museums throughout the country. Creative Arts has been commissioned by the Tennessee Museum of Aviation-home to one of the best historical aircraft collections in the country-to build the Skycycle X-2, the rocket used by Evel Knievel in his most famous daredevil stunt. Knievel used the Skycycle to attempt an 1,800 foot jump across Idaho's Snake River Canyon. Creative Arts will bring this flying machine to life, focusing on the streamlined fuselage and minimalist cockpit, the fighter plane-inspired nose and tail, and the signature paint scheme that matched Evel's flashy personality. The team will also be building President Kennedy's Resolute Desk for the retired mayor of Tampa."

General
Complete name : Museum.Men.Evel.Knievels.Rocket.mp4
Format : MPEG-4
Format profile : Base Media
Codec ID : isom
File size : 980 MiB
Duration : 42mn 58s
Overall bit rate mode : Variable
Overall bit rate : 3 188 Kbps

Video
ID : 1
Format : AVC
Format/Info : Advanced Video Codec
Format profile : [email protected]
Format settings, CABAC : No
Format settings, ReFrames : 1 frame
Format settings, GOP : M=1, N=12
Codec ID : avc1
Codec ID/Info : Advanced Video Coding
Duration : 42mn 58s
Bit rate : 3 024 Kbps
Width : 1 280 pixels
Height : 720 pixels
Display aspect ratio : 16:9
Frame rate mode : Constant
Frame rate : 29.970 fps
Color space : YUV
Chroma subsampling : 4:2:0
Bit depth : 8 bits
Scan type : Progressive
Bits/(Pixel*Frame) : 0.109
Stream size : 929 MiB (95%)
Encoded date : UTC 2015-01-04 08:21:48
Tagged date : UTC 2015-01-04 08:21:48

Audio
ID : 2
Format : AAC
Format/Info : Advanced Audio Codec
Format profile : LC
Codec ID : 40
Duration : 42mn 58s
Bit rate mode : Variable
Bit rate : 160 Kbps
Channel(s) : 2 channels
Channel positions : Front: L R
Sampling rate : 48.0 KHz
Compression mode : Lossy
Stream size : 49.2 MiB (5%)
Encoded date : UTC 2015-01-04 08:21:48
Tagged date : UTC 2015-01-04 08:21:48

Screenshots:

http://i63.fastpic.ru/big/2015/0112/06/b7b6f0c7bb41df59e0d6cd102243c106.jpg

http://i68.fastpic.ru/big/2015/0112/e7/87c6eb6384b8eb2b252ff346952dbfe7.jpg

http://i63.fastpic.ru/big/2015/0112/25/c287907b5b4d9c22937f7290d18a5625.jpg

http://i63.fastpic.ru/big/2015/0112/5c/5b0de1e30cec8d1c13e4dd866472e15c.jpg


DOWNLOAD LINKS:
Buy Premium From My Links To Get Resumable Support,Max Speed & Support Me


Links are Interchangeable - No Password - Single Extraction
[related-news][/related-news]
Dear visitor, you are browsing our website as Guest.
We strongly recommend you to register and login to view hidden contents.

Comments:

Add Comments
 

This site doesn't store any files on its server. We only index and link to content provided by other sites.