» » PBS - NATURE: Wild France (2015)
Advertise
onlinemovies


PBS - NATURE: Wild France (2015)

Published On: 12-01-2015, 13:27

http://i64.fastpic.ru/big/2015/0112/98/2da35b02d4331c5c8f3948454c951798.jpg
PBS - NATURE: Wild France (2015)
HDTV | 1280x720 | .MKV/AVC @ 2618 Kbps | 52mn 56s | Audio: English AC3 384 kbps, 6 channels | Subs: None | 1.13 GiB
Genre: Documentary

"France is known for its delicious food and wines, great art and architecture and celebrated culture of all kinds. But there's another side to this popular destination that is not as visible, its wild side. Deep in the French countryside, it is possible for the adventurous to spot brown bears, wild boar, griffon vultures or wolves."

General
Unique ID : 213902176917338048809220296665827867028 (0xA0EC0F8E968DC8BFB87C33FDD2E37994)
Complete name : nature.wild.france.mkv
Format : Matroska
Format version : Version 4 / Version 2
File size : 1.13 GiB
Duration : 52mn 56s
Overall bit rate : 3 062 Kbps

Video
ID : 1
Format : AVC
Format/Info : Advanced Video Codec
Format profile : [email protected]
Format settings, CABAC : Yes
Format settings, ReFrames : 5 frames
Codec ID : V_MPEG4/ISO/AVC
Duration : 52mn 56s
Bit rate : 2 618 Kbps
Width : 1 280 pixels
Height : 720 pixels
Display aspect ratio : 16:9
Frame rate : 25.000 fps
Color space : YUV
Chroma subsampling : 4:2:0
Bit depth : 8 bits
Scan type : Progressive
Bits/(Pixel*Frame) : 0.114
Stream size : 991 MiB (85%)
Writing library : x264 core 144 r2525 40bb568
Encoding settings : cabac=1 / ref=5 / deblock=1:0:0 / analyse=0x3:0x113 / me=umh / subme=8 / psy=1 / psy_rd=1.00:0.00 / mixed_ref=1 / me_range=16 / chroma_me=1 / trellis=1 / 8x8dct=1 / cqm=0 / deadzone=21,11 / fast_pskip=1 / chroma_qp_offset=-2 / threads=12 / lookahead_threads=2 / sliced_threads=0 / nr=0 / decimate=1 / interlaced=0 / bluray_compat=0 / constrained_intra=0 / bframes=3 / b_pyramid=2 / b_adapt=2 / b_bias=0 / direct=3 / weightb=1 / open_gop=0 / weightp=2 / keyint=250 / keyint_min=25 / scenecut=40 / intra_refresh=0 / rc_lookahead=50 / rc=crf / mbtree=1 / crf=21.0 / qcomp=0.60 / qpmin=0 / qpmax=69 / qpstep=4 / ip_ratio=1.40 / aq=1:1.00
Language : English
Default : Yes
Forced : No

Audio
ID : 2
Format : AC-3
Format/Info : Audio Coding 3
Mode extension : CM (complete main)
Format settings, Endianness : Big
Codec ID : A_AC3
Duration : 52mn 56s
Bit rate mode : Constant
Bit rate : 384 Kbps
Channel(s) : 6 channels
Channel positions : Front: L C R, Side: L R, LFE
Sampling rate : 48.0 KHz
Bit depth : 16 bits
Compression mode : Lossy
Stream size : 145 MiB (13%)
Language : English
Default : Yes
Forced : No

Text
ID : 3
Format : UTF-8
Codec ID : S_TEXT/UTF8
Codec ID/Info : UTF-8 Plain Text
Language : English
Default : No
Forced : No

Screenshots:

http://i68.fastpic.ru/big/2015/0112/f3/15a7b65ae51d8f810d3f2f5455f0bff3.jpg

http://i66.fastpic.ru/big/2015/0112/94/303b52c31eb53ea99007502b17a2af94.jpg

http://i63.fastpic.ru/big/2015/0112/4e/261feab60eec73f20c78b59bb884d74e.jpg

http://i67.fastpic.ru/big/2015/0112/4c/15e2c2520fecb377be64f9566a09c54c.jpg


DOWNLOAD LINKS:
Buy Premium From My Links To Get Resumable Support,Max Speed & Support Me


Links are Interchangeable - No Password - Single Extraction
[related-news][/related-news]
Dear visitor, you are browsing our website as Guest.
We strongly recommend you to register and login to view hidden contents.

Comments:

Add Comments
 

This site doesn't store any files on its server. We only index and link to content provided by other sites.