2013Zone For Latest Downloads

 
     
 
Legal Downloads » TV Shows » History Channel - Sea Tales: The Halifax Explosion (1997)
Menu
Home Applications
Games Movies
Music TV Shows
Torrents Graphics

Sitemap

RSS
 
Advanced Search
Last News
Site Info
Top Contributors:
  1    supper88 32766
  2    admin 32630
  3    creativelivenew 8706
  4    whathesupa 2799
  5    candymypost 840
  6    hvnteam 629
  7    vuong87 3


Articles:
  This Hour: 0
  Today: 0
  This Month: 0
  All Time: 514770


Torrents:
  Today: 0
  Yesterday: 0
  All Time: 155775


Membership:
  Registered Today :0
  This Hour:0
  This Month:0
  Total:12
  Banned:6

{online}
{inform_torrent}
Friend:
We Recomend
Trend
Trend
onlinemovies

Search In Site

TV Shows : History Channel - Sea Tales: The Halifax Explosion (1997)
 

http://i65.fastpic.ru/big/2015/0112/89/8f8de2610dfdd1607ae782b8e7170889.jpg
History Channel - Sea Tales: The Halifax Explosion (1997)
DVDRip | 720x544 | .AVI/DivX @ 2338 Kbps | 47mn 59s | Audio: English AC3 256 kbps, 2 channels | Subs: None | 895 MiB
Genre: Documentary | Historical

"Some say it was the work of German spies. Others maintain that it was a tragic accident of unimaginable proportions. Whatever the cause, on a bitter morning in 1917 in the booming port of Halifax, Nova Scotia, 1,600 people were killed and 9,000 injured when a French munitions ship exploded after striking another vessel. THE HALIFAX EXPLOSION is a comprehensive examination of the tragedy. Eyewitness accounts capture the force and horror of the explosion the largest non-nuclear detonation in history! Rare photos and archival footage reveal the incredible destruction that led thousands of mariners from around the world to converge on the devastated port in a massive relief effort. World War I historians examine the theories that surround the disaster, while a detailed reconstruction shows how accident and error compounded to create tragedy. It's an intriguing look at one of the most incredible chapters in maritime history."

General
Complete name : HC.Sea.Tales.The.Halifax.Explosion.avi
Format : AVI
Format/Info : Audio Video Interleave
File size : 895 MiB
Duration : 47mn 59s
Overall bit rate : 2 606 Kbps

Video
ID : 0
Format : MPEG-4 Visual
Format profile : Advanced [email protected]
Format settings, BVOP : 1
Format settings, QPel : No
Format settings, GMC : No warppoints
Format settings, Matrix : Default (MPEG)
Codec ID : DX50
Codec ID/Hint : DivX 5
Duration : 47mn 59s
Bit rate : 2 338 Kbps
Width : 720 pixels
Height : 544 pixels
Display aspect ratio : 4:3
Frame rate : 29.970 fps
Color space : YUV
Chroma subsampling : 4:2:0
Bit depth : 8 bits
Scan type : Progressive
Compression mode : Lossy
Bits/(Pixel*Frame) : 0.199
Stream size : 803 MiB (90%)
Writing library : XviD 1.2.1 (UTC 2008-12-04)

Audio
ID : 1
Format : AC-3
Format/Info : Audio Coding 3
Mode extension : CM (complete main)
Format settings, Endianness : Big
Codec ID : 2000
Duration : 47mn 59s
Source duration : 47mn 59s
Bit rate mode : Constant
Bit rate : 256 Kbps
Channel(s) : 2 channels
Channel positions : Front: L R
Sampling rate : 48.0 KHz
Bit depth : 16 bits
Compression mode : Lossy
Stream size : 87.9 MiB (10%)
Alignment : Aligned on interleaves
Interleave, duration : 33 ms (1.00 video frame)

Screenshots:

http://i68.fastpic.ru/big/2015/0112/94/fb1cc7a7ea17702961c9e534f644d594.jpg

http://i68.fastpic.ru/big/2015/0112/4b/bd5ea82996f3738c1b46a7cf36ef5f4b.jpg

http://i63.fastpic.ru/big/2015/0112/fc/48d720d370946977da35ca0a019aa9fc.jpg

http://i63.fastpic.ru/big/2015/0112/6f/f9390d10382980d7929e0ec26a452d6f.jpg


DOWNLOAD LINKS:
Buy Premium From My Links To Get Resumable Support,Max Speed & Support Me


Links are Interchangeable - No Password - Single Extraction

 
 
 
Dear visitor, you went to the site as an unregistered user. We encourage you to register or enter the site under your name.
 
   
 
 (Votes #: 0)