» » BBC - The Clash: New Year's Day '77 (2014)
Advertise
onlinemovies


BBC - The Clash: New Year's Day '77 (2014)

Published On: 12-01-2015, 15:07

http://i67.fastpic.ru/big/2015/0112/2d/bd7fa5fb30ad8a135f66abc70400482d.jpg
BBC - The Clash: New Year's Day '77 (2014)
HDTV | 768x576 | .MP4/AVC @ 1749 Kbps | 1h 15mn | Audio: English AAC 132 kbps, 2 channels | Subs: English | 1015 MiB
Genre: Documentary

"Built around the earliest, until now unseen, footage of the Clash in concert, filmed by Julien Temple as they opened the infamous Roxy club in a dilapidated Covent Garden on January 1st 1977, this show takes us on a time-travelling trip back to that strange planet that was Great Britain in the late 1970s and the moment when punk emerged into the mainstream consciousness. Featuring the voices of Joe Strummer and the Clash from the time, and intercutting the raw and visceral footage of this iconic show, with telling moments from the BBC's New Year's Eve, Hogmanay and New Year's Day schedules of nearly 40 years ago, it celebrates that great enduring British custom of getting together, en masse and often substantially the worse for wear, to usher in the New Year. New Year's Day is when we collectively take the time to reflect on the year that has just gone by and ponder what the new one might hold in store for us. Unknown to the unsuspecting British public, 1977 was of course the annus mirabilis of punk."

General
Complete name : BBC.The.Clash.New.Years.Day.1977.mp4
Format : MPEG-4
Format profile : Base Media
Codec ID : isom
File size : 1 015 MiB
Duration : 1h 15mn
Overall bit rate mode : Variable
Overall bit rate : 1 887 Kbps

Video
ID : 1
Format : AVC
Format/Info : Advanced Video Codec
Format profile : [email protected]
Format settings, CABAC : Yes
Format settings, ReFrames : 4 frames
Codec ID : avc1
Codec ID/Info : Advanced Video Coding
Duration : 1h 15mn
Bit rate : 1 749 Kbps
Maximum bit rate : 8 470 Kbps
Width : 768 pixels
Height : 576 pixels
Display aspect ratio : 4:3
Frame rate mode : Constant
Frame rate : 25.000 fps
Color space : YUV
Chroma subsampling : 4:2:0
Bit depth : 8 bits
Scan type : Progressive
Bits/(Pixel*Frame) : 0.158
Stream size : 941 MiB (93%)
Writing library : x264 core 144 r2525 40bb568
Encoding settings : cabac=1 / ref=4 / deblock=1:0:0 / analyse=0x3:0x113 / me=hex / subme=7 / psy=1 / psy_rd=1.00:0.00 / mixed_ref=1 / me_range=16 / chroma_me=1 / trellis=1 / 8x8dct=1 / cqm=0 / deadzone=21,11 / fast_pskip=0 / chroma_qp_offset=-2 / threads=3 / lookahead_threads=1 / sliced_threads=0 / nr=0 / decimate=1 / interlaced=0 / bluray_compat=0 / constrained_intra=0 / bframes=3 / b_pyramid=2 / b_adapt=1 / b_bias=0 / direct=1 / weightb=1 / open_gop=0 / weightp=2 / keyint=250 / keyint_min=25 / scenecut=40 / intra_refresh=0 / rc_lookahead=40 / rc=crf / mbtree=1 / crf=25.0 / qcomp=0.60 / qpmin=0 / qpmax=69 / qpstep=4 / ip_ratio=1.40 / aq=1:1.00
Encoded date : UTC 2015-01-02 19:18:06
Tagged date : UTC 2015-01-02 19:42:34

Audio
ID : 2
Format : AAC
Format/Info : Advanced Audio Codec
Format profile : LC
Codec ID : 40
Duration : 1h 15mn
Bit rate mode : Variable
Bit rate : 132 Kbps
Maximum bit rate : 184 Kbps
Channel(s) : 2 channels
Channel positions : Front: L R
Sampling rate : 48.0 KHz
Compression mode : Lossy
Stream size : 72.0 MiB (7%)
Language : English
Encoded date : UTC 2015-01-02 17:19:49
Tagged date : UTC 2015-01-02 19:42:34

Text
ID : 3
Format : Timed text
Codec ID : tx3g
Duration : 1h 15mn
Bit rate mode : Variable
Bit rate : 102 bps
Stream size : 56.3 KiB (0%)
Language : English
Encoded date : UTC 2015-01-02 19:42:34
Tagged date : UTC 2015-01-02 19:42:34

Screenshots:

http://i66.fastpic.ru/big/2015/0112/08/72190b96179fb2bd332a97b98cc6a108.jpg

http://i67.fastpic.ru/big/2015/0112/43/0fe7f043287994f4345fb9c8b860ec43.jpg

http://i66.fastpic.ru/big/2015/0112/58/4806a508b96095fe5b9f7586e7117f58.jpg

http://i67.fastpic.ru/big/2015/0112/cc/ce7f4a1dcd35a25ce7bed0cae74b20cc.jpg


DOWNLOAD LINKS:
Buy Premium From My Links To Get Resumable Support,Max Speed & Support Me


Links are Interchangeable - No Password - Single Extraction
[related-news][/related-news]
Dear visitor, you are browsing our website as Guest.
We strongly recommend you to register and login to view hidden contents.

Comments:

Add Comments
 

This site doesn't store any files on its server. We only index and link to content provided by other sites.