» » Free - Molten Gold: The Anthology (1993)
Advertise
onlinemovies


Free - Molten Gold: The Anthology (1993)

Published On: 12-01-2015, 15:12
http://i67.fastpic.ru/big/2015/0112/c9/45ae16612c43501d172554b114e37bc9.jpg

Free - Molten Gold: The Anthology (1993)
EAC | Flac(Image) + Cue + Log & MP3 CBR 320Kbps
2CD | Island, 518 456-2 | ~ 765 or 302 Mb | Scans(600dpi, jpg) -> 106 Mb
Blues Rock / Classic Rock / Hard Rock

"With their big riffs and bluesy melodies, Free virtually defined hard rock in the early '70s, and Molten Gold: The Anthology shows that this wasn't such a meager achievement..."

Free - Molten Gold: The Anthology (1993):

http://i68.fastpic.ru/big/2015/0112/ad/707ae5eff9dfd677091572f8c310d1ad.jpg

Tracklist CD1:

01. I'm A Mover 2:58
02. The Hunter 4:16
03. Walk In My Shadow 3:32
04. I'll Be Creepin' 3:29
05. Songs Of Yesterday 3:36
06. Woman 3:51
07. Broad Daylight 3:16
08. Mouthful Of Grass 3:37
09. All Right Now 5:35
10. Oh I Wept 4:28
11. Heavy Load 5:22
12. Don't Say You Love Me 6:03
13. The Stealer 4:27
14. The Highway Song 4:17
15. Be My Friend 5:47
16. Soon I Will Be Gone 3:02

Exact Audio Copy V1.0 beta 3 from 29. August 2011

EAC extraction logfile from 2. November 2014, 17:50

Free / Molten Gold: The Anthology (Disc 1) (518 456-2)

Used drive : PLEXTOR DVDR PX-891SA Adapter: 3 ID: 0

Read mode : Secure
Utilize accurate stream : Yes
Defeat audio cache : Yes
Make use of C2 pointers : No

Read offset correction : 6
Overread into Lead-In and Lead-Out : No
Fill up missing offset samples with silence : Yes
Delete leading and trailing silent blocks : No
Null samples used in CRC calculations : Yes
Used interface : Native Win32 interface for Win NT & 2000

Used output format : User Defined Encoder
Selected bitrate : 1024 kBit/s
Quality : High
Add ID3 tag : No
Command line compressor : C:\Program Files\Exact Audio Copy\Flac\flac.exe
Additional command line options : -V -8 -T "Genre=%genre%" -T "Artist=%artist%" -T "Title=%title%" -T "Album=%albumtitle%" -T "Date=%year%" -T "Tracknumber=%tracknr%" -T "Comment=%comment%" %source%

TOC of the extracted CD Track | Start | Length | Start sector | End sector
-----------
1 | 0:00.00 | 2:58.17 | 0 | 13366
2 | 2:58.17 | 4:15.50 | 13367 | 32541
3 | 7:13.67 | 3:32.00 | 32542 | 48441
4 | 10:45.67 | 3:28.63 | 48442 | 64104
5 | 14:14.55 | 3:36.37 | 64105 | 80341
6 | 17:51.17 | 3:51.13 | 80342 | 97679
7 | 21:42.30 | 3:16.37 | 97680 | 112416
8 | 24:58.67 | 3:37.25 | 112417 | 128716
9 | 28:36.17 | 5:34.38 | 128717 | 153804
10 | 34:10.55 | 4:28.37 | 153805 | 173941
11 | 38:39.17 | 5:21.38 | 173942 | 198054
12 | 44:00.55 | 6:02.62 | 198055 | 225266
13 | 50:03.42 | 4:27.00 | 225267 | 245291
14 | 54:30.42 | 4:16.38 | 245292 | 264529
15 | 58:47.05 | 5:46.50 | 264530 | 290529
16 | 64:33.55 | 3:02.20 | 290530 | 304199

Range status and errors

Selected range Filename H:\dafnaplus\Free ‎- Molten Gold - The Anthology\Disc 1\Free - Molten Gold- The Anthology (Disc 1) (518 456-2).wav Peak level 100.0 %
Extraction speed 9.7 X
Range quality 100.0 %
Test CRC 31800A0C
Copy CRC 31800A0C
Copy OK

No errors occurred


AccurateRip summary

Track 1 accurately ripped (confidence 14) [D45D495A] (AR v2)
Track 2 accurately ripped (confidence 14) [1E1A60FF] (AR v2)
Track 3 accurately ripped (confidence 14) [8EED14C9] (AR v2)
Track 4 accurately ripped (confidence 14) [19C03526] (AR v2)
Track 5 accurately ripped (confidence 14) [EBFB3340] (AR v2)
Track 6 accurately ripped (confidence 14) [F1BC068C] (AR v2)
Track 7 accurately ripped (confidence 14) [ACF4AFED] (AR v2)
Track 8 accurately ripped (confidence 14) [4916C119] (AR v2)
Track 9 accurately ripped (confidence 14) [896C4A9D] (AR v2)
Track 10 accurately ripped (confidence 14) [16096917] (AR v2)
Track 11 accurately ripped (confidence 14) [47609BFF] (AR v2)
Track 12 accurately ripped (confidence 14) [CD8827BC] (AR v2)
Track 13 accurately ripped (confidence 14) [69DA61C9] (AR v2)
Track 14 accurately ripped (confidence 14) [50E39C6E] (AR v2)
Track 15 accurately ripped (confidence 14) [2A49C3B1] (AR v2)
Track 16 accurately ripped (confidence 14) [136611F1] (AR v2)

All tracks accurately ripped

End of status report

foobar2000 1.2.9 / Dynamic Range Meter 1.1.1
log date: 2015-01-07 12:58:24

--
Analyzed: Free / Molten Gold: The Anthology (Disc 1) (518 456-2)
--

DR Peak RMS Duration Track
--
DR13 -0.36 dB -16.34 dB 2:58 01-I'm A Mover
DR11 -0.24 dB -15.42 dB 4:16 02-The Hunter
DR12 -0.45 dB -15.02 dB 3:32 03-Walk In My Shadow
DR12 -1.40 dB -16.17 dB 3:29 04-I'll Be Creepin'
DR12 -0.80 dB -15.56 dB 3:36 05-Songs Of Yesterday
DR13 -0.13 dB -16.15 dB 3:51 06-Woman
DR13 -0.77 dB -16.69 dB 3:16 07-Broad Daylight
DR9 -5.10 dB -18.32 dB 3:37 08-Mouthful Of Grass
DR13 -0.39 dB -16.45 dB 5:35 09-All Right Now
DR15 -0.72 dB -19.47 dB 4:28 10-Oh I Wept
DR13 -0.43 dB -18.00 dB 5:22 11-Heavy Load
DR13 0.00 dB -19.09 dB 6:03 12-Don't Say You Love Me
DR11 -1.16 dB -14.46 dB 4:27 13-The Stealer
DR13 -0.90 dB -17.89 dB 4:17 14-The Highway Song
DR14 -0.42 dB -17.41 dB 5:47 15-Be My Friend
DR13 0.00 dB -16.98 dB 3:02 16-Soon I Will Be Gone
--

Number of tracks: 16
Official DR value: DR13

Samplerate: 44100 Hz
Channels: 2
Bits per sample: 16
Bitrate: 772 kbps
Codec: FLAC

[CUETools log; Date: 02.11.2014 17:57:35; Version: 2.1.5]
[CTDB TOCID: 7Gf75iwsuhBBUlW1ziC4WsJatH8-] found.
Track | CTDB Status
1 | (3/3) Accurately ripped
2 | (3/3) Accurately ripped
3 | (3/3) Accurately ripped
4 | (3/3) Accurately ripped
5 | (3/3) Accurately ripped
6 | (3/3) Accurately ripped
7 | (3/3) Accurately ripped
8 | (3/3) Accurately ripped
9 | (3/3) Accurately ripped
10 | (3/3) Accurately ripped
11 | (3/3) Accurately ripped
12 | (3/3) Accurately ripped
13 | (3/3) Accurately ripped
14 | (3/3) Accurately ripped
15 | (3/3) Accurately ripped
16 | (3/3) Accurately ripped
[AccurateRip ID: 002520d1-01c7554c-c40fd810] found.
Track [ CRC | V2 ] Status
01 [51e8d46b|d45d495a] (18+14/36) Accurately ripped
02 [4c49b7e9|1e1a60ff] (17+14/35) Accurately ripped
03 [4c982155|8eed14c9] (17+14/35) Accurately ripped
04 [8ae29d6d|19c03526] (18+14/36) Accurately ripped
05 [e6c84613|ebfb3340] (17+14/35) Accurately ripped
06 [ecd218d3|f1bc068c] (17+14/35) Accurately ripped
07 [8574b67a|acf4afed] (17+14/35) Accurately ripped
08 [ddfa536d|4916c119] (17+14/35) Accurately ripped
09 [2ff13047|896c4a9d] (17+14/35) Accurately ripped
10 [0743cdd3|16096917] (17+14/35) Accurately ripped
11 [58b71c74|47609bff] (17+14/35) Accurately ripped
12 8faf29f|cd8827bc (17+14/35) Accurately ripped
13 [9d8783ed|69da61c9] (16+14/34) Accurately ripped
14 [908bf96f|50e39c6e] (16+14/34) Accurately ripped
15 [104b762c|2a49c3b1] (16+14/34) Accurately ripped
16 94b8ca0|136611f1 (16+14/34) Accurately ripped
Offsetted by -664:
01 [f8d19e8b] (04/36) Accurately ripped
02 [19a6bf81] (04/35) Accurately ripped
03 [7b78fd25] (04/35) Accurately ripped
04 [ea94dd65] (04/36) Accurately ripped
05 [10ebf71b] (04/35) Accurately ripped
06 [9a49d3a3] (04/35) Accurately ripped
07 [49860102] (04/35) Accurately ripped
08 [7caf689d] (04/35) Accurately ripped
09 [de67b1ff] (04/35) Accurately ripped
10 [888b6c2b] (04/35) Accurately ripped
11 [dd6fcb3c] (04/35) Accurately ripped
12 [e6a9321f] (04/35) Accurately ripped
13 [2b6169ad] (04/34) Accurately ripped
14 [66c888af] (04/34) Accurately ripped
15 [9765d4ec] (04/34) Accurately ripped
16 [81ccf980] (04/34) Accurately ripped

Track Peak [ CRC32 ] [W/O NULL] [ LOG ]
-- 100,0 [31800A0C] [93627C92] CRC32
01 95,9 [ABC1F80E] [7428C29A]
02 97,2 [92C47A4B] [30C5959E]
03 94,9 [D66F3F4F] [0BD47ACB]
04 85,1 [D2C0EE26] [116C002F]
05 91,2 [4DEB7AA0] [403FBF01]
06 98,5 [A4249E25] [323B1A09]
07 91,5 [6A4E8A1B] [1BF65122]
08 55,6 [FCAEC99F] [840462EE]
09 95,5 [30A90520] [F89280F2]
10 92,0 [959A84E1] [8AA1A7F5]
11 95,1 [CA79D1F1] [DD8F7D15]
12 100,0 [16584C58] [71740D2A]
13 87,5 [31991185] [FDFF3A7A]
14 90,1 [20A21095] [DE4FF491]
15 95,3 [F6D3E3E1] [0752F1F4]
16 100,0 [D6C21711] [1353C6E7]

http://i65.fastpic.ru/big/2015/0112/89/ab2ef305ba6a11b115c3da0a361e7189.jpg

Tracklist CD2:

01. My Brother Jake 2:57
02. Fire And Water 4:03
03. Ride On Pony 4:32
04. Mr. Big 6:14
05. Time Away 5:49
06. Molten Gold 5:53
07. Catch A Train 3:28
08. Travelling Man 3:22
09. Little Bit Of Love 2:35
10. Sail On 3:06
11. Wishing Well 3:41
12. Come Together In The Morning 4:39
13. Travelling In Style 4:04
14. Heartbreaker 6:13

Exact Audio Copy V1.0 beta 3 from 29. August 2011

EAC extraction logfile from 2. November 2014, 13:58

Free / Molten Gold: The Anthology (Disc 2) (518 456-2)

Used drive : PLEXTOR DVDR PX-891SA Adapter: 3 ID: 0

Read mode : Secure
Utilize accurate stream : Yes
Defeat audio cache : Yes
Make use of C2 pointers : No

Read offset correction : 6
Overread into Lead-In and Lead-Out : No
Fill up missing offset samples with silence : Yes
Delete leading and trailing silent blocks : No
Null samples used in CRC calculations : Yes
Used interface : Native Win32 interface for Win NT & 2000

Used output format : User Defined Encoder
Selected bitrate : 1024 kBit/s
Quality : High
Add ID3 tag : No
Command line compressor : C:\Program Files\Exact Audio Copy\Flac\flac.exe
Additional command line options : -V -8 -T "Genre=%genre%" -T "Artist=%artist%" -T "Title=%title%" -T "Album=%albumtitle%" -T "Date=%year%" -T "Tracknumber=%tracknr%" -T "Comment=%comment%" %source%

TOC of the extracted CD Track | Start | Length | Start sector | End sector
-----------
1 | 0:00.00 | 2:57.30 | 0 | 13304
2 | 2:57.30 | 4:02.62 | 13305 | 31516
3 | 7:00.17 | 4:31.38 | 31517 | 51879
4 | 11:31.55 | 6:14.37 | 51880 | 79966
5 | 17:46.17 | 5:49.00 | 79967 | 106141
6 | 23:35.17 | 5:53.00 | 106142 | 132616
7 | 29:28.17 | 3:28.13 | 132617 | 148229
8 | 32:56.30 | 3:22.00 | 148230 | 163379
9 | 36:18.30 | 2:35.37 | 163380 | 175041
10 | 38:53.67 | 3:06.13 | 175042 | 189004
11 | 42:00.05 | 3:41.25 | 189005 | 205604
12 | 45:41.30 | 4:39.25 | 205605 | 226554
13 | 50:20.55 | 4:03.62 | 226555 | 244841
14 | 54:24.42 | 6:13.33 | 244842 | 272849

Range status and errors

Selected range Filename H:\dafnaplus\Free ‎- Molten Gold - The Anthology\Disc 2\Free - Molten Gold- The Anthology (Disc 2) (518 456-2).wav Peak level 100.0 %
Extraction speed 8.5 X
Range quality 99.9 %
Test CRC 06349B75
Copy CRC 06349B75
Copy OK

No errors occurred


AccurateRip summary

Track 1 accurately ripped (confidence 13) [3D365941] (AR v2)
Track 2 accurately ripped (confidence 14) [0579769E] (AR v2)
Track 3 accurately ripped (confidence 14) [F1E1696F] (AR v2)
Track 4 accurately ripped (confidence 14) [E8107569] (AR v2)
Track 5 accurately ripped (confidence 14) [9EE675CC] (AR v2)
Track 6 accurately ripped (confidence 14) [CAB8AF02] (AR v2)
Track 7 accurately ripped (confidence 14) [40AD3543] (AR v2)
Track 8 accurately ripped (confidence 14) [8A9F33B3] (AR v2)
Track 9 accurately ripped (confidence 14) [8C793C20] (AR v2)
Track 10 accurately ripped (confidence 14) [FEB76C89] (AR v2)
Track 11 accurately ripped (confidence 14) [EF894AB2] (AR v2)
Track 12 accurately ripped (confidence 14) [D7E12561] (AR v2)
Track 13 accurately ripped (confidence 14) [C923F208] (AR v2)
Track 14 accurately ripped (confidence 14) [CFDA0852] (AR v2)

All tracks accurately ripped

End of status report

foobar2000 1.2.9 / Dynamic Range Meter 1.1.1
log date: 2015-01-07 12:58:45

--
Analyzed: Free / Molten Gold: The Anthology (Disc 2) (518 456-2)
--

DR Peak RMS Duration Track
--
DR12 -1.05 dB -15.33 dB 2:57 01-My Brother Jake
DR11 -0.39 dB -14.27 dB 4:03 02-Fire And Water
DR12 0.00 dB -14.10 dB 4:32 03-Ride On Pony
DR12 -0.54 dB -15.36 dB 6:14 04-Mr. Big
DR15 -1.28 dB -18.95 dB 5:49 05-Time Away
DR13 -1.19 dB -17.40 dB 5:53 06-Molten Gold
DR12 0.00 dB -15.96 dB 3:28 07-Catch A Train
DR11 -1.16 dB -14.39 dB 3:22 08-Travelling Man
DR12 -1.03 dB -14.96 dB 2:35 09-Little Bit Of Love
DR12 -0.74 dB -15.75 dB 3:06 10-Sail On
DR11 -1.35 dB -15.66 dB 3:41 11-Wishing Well
DR11 -2.75 dB -17.19 dB 4:39 12-Come Together In The Morning
DR13 -2.19 dB -18.84 dB 4:04 13-Travelling In Style
DR12 -2.85 dB -16.61 dB 6:13 14-Heartbreaker
--

Number of tracks: 14
Official DR value: DR12

Samplerate: 44100 Hz
Channels: 2
Bits per sample: 16
Bitrate: 816 kbps
Codec: FLAC

[CUETools log; Date: 02.11.2014 17:59:19; Version: 2.1.5]
[CTDB TOCID: 3E3Z.0.ePtrFiH1sX9tcOHT5Amk-] found.
Track | CTDB Status
1 | (3/3) Accurately ripped
2 | (3/3) Accurately ripped
3 | (3/3) Accurately ripped
4 | (3/3) Accurately ripped
5 | (3/3) Accurately ripped
6 | (3/3) Accurately ripped
7 | (3/3) Accurately ripped
8 | (3/3) Accurately ripped
9 | (3/3) Accurately ripped
10 | (3/3) Accurately ripped
11 | (3/3) Accurately ripped
12 | (3/3) Accurately ripped
13 | (3/3) Accurately ripped
14 | (3/3) Accurately ripped
[AccurateRip ID: 001f2469-014b4e34-bc0e360e] found.
Track [ CRC | V2 ] Status
01 [3c00ec22|3d365941] (17+13/34) Accurately ripped
02 363e1e1|0579769e (17+14/35) Accurately ripped
03 [d6015750|f1e1696f] (17+14/35) Accurately ripped
04 [c10c3d1c|e8107569] (17+14/35) Accurately ripped
05 [554ff4aa|9ee675cc] (17+14/35) Accurately ripped
06 [0c821dd1|cab8af02] (17+14/35) Accurately ripped
07 [22cd5c0c|40ad3543] (17+14/35) Accurately ripped
08 [abd838e9|8a9f33b3] (17+14/35) Accurately ripped
09 [1a714f1f|8c793c20] (17+14/35) Accurately ripped
10 [ac1854d2|feb76c89] (17+14/35) Accurately ripped
11 [2dbfff4f|ef894ab2] (17+14/35) Accurately ripped
12 [c2245d54|d7e12561] (17+14/35) Accurately ripped
13 [9932162f|c923f208] (17+14/35) Accurately ripped
14 [78a83c6b|cfda0852] (17+14/35) Accurately ripped
Offsetted by -664:
01 [8b2c723a] (04/34) Accurately ripped
02 9c57580 (04/35) Accurately ripped
03 [69085009] (04/35) Accurately ripped
04 [268b9fa4] (04/35) Accurately ripped
05 [d4ee7092] (04/35) Accurately ripped
06 [79e4d311] (04/35) Accurately ripped
07 [4893224c] (04/35) Accurately ripped
08 [43f0bca9] (04/35) Accurately ripped
09 [580ed7bf] (04/35) Accurately ripped
10 [7109201a] (04/35) Accurately ripped
11 [27e3462f] (04/35) Accurately ripped
12 [6f0fe334] (04/35) Accurately ripped
13 [d8a012e7] (04/35) Accurately ripped
14 [86ed8f9b] (04/35) Accurately ripped

Track Peak [ CRC32 ] [W/O NULL] [ LOG ]
-- 100,0 [06349B75] [F0DC26B6] CRC32
01 88,6 [4F5864E5] [5EB7E6C7]
02 95,5 [D08B10DB] [E3CC1502]
03 100,0 [6D5C077C] [987EE2DB]
04 94,0 [8A2C676B] [91178B5C]
05 86,2 [8421A87F] [77D1D4BB]
06 87,2 [92697744] [FDF5B5D6]
07 100,0 [F75BC47D] [6295DFC2]
08 87,4 [069DA828] [6F5507E0]
09 88,8 [86DD334E] [546596C4]
10 91,8 [CD3DE2E2] [1EE500DA]
11 85,6 [D4820978] [FE0C6918]
12 72,8 [E401C581] A8569D6
13 77,7 [7668652B] [55EA5263]
14 71,9 [3C979D88] [2E0C9ACE]

http://i63.fastpic.ru/big/2015/0112/5e/cd6892ec19e301b94049b23a0fd9665e.jpg

All thanks go to dafnaplus
DOWNLOAD LINKS:
Buy Premium From My Links To Get Resumable Support,Max Speed & Support Me


Links are Interchangeable - No Password - Single Extraction
[related-news][/related-news]
Dear visitor, you are browsing our website as Guest.
We strongly recommend you to register and login to view hidden contents.

Comments:

Add Comments
 

This site doesn't store any files on its server. We only index and link to content provided by other sites.