2013Zone For Latest Downloads

 
     
 
Legal Downloads » Music » Alexis Korner's Blues Incorporated - R&B from the Marquee (1962) (Bonus Tracks)
Menu
Home Applications
Games Movies
Music TV Shows
Torrents Graphics

Sitemap

RSS
 
Advanced Search
Last News
Site Info
Top Contributors:
  1    supper88 32766
  2    admin 32630
  3    creativelivenew 8706
  4    whathesupa 2799
  5    candymypost 840
  6    hvnteam 629
  7    vuong87 3


Articles:
  This Hour: 0
  Today: 0
  This Month: 0
  All Time: 514770


Torrents:
  Today: 0
  Yesterday: 0
  All Time: 155775


Membership:
  Registered Today :0
  This Hour:0
  This Month:0
  Total:12
  Banned:6

{online}
{inform_torrent}
Friend:
We Recomend
Trend
Trend
onlinemovies

Search In Site

Music : Alexis Korner's Blues Incorporated - R&B from the Marquee (1962) (Bonus Tracks)
 
http://i64.fastpic.ru/big/2015/0112/b6/03e883b27188596d93a3f74a480443b6.jpg

Alexis Korner's Blues Incorporated - R&B from the Marquee (1962) (Bonus Tracks)
Blues | 1cd | EAC Rip | Ape + Cue + Log | covers
Castle CMRCD1371 | rem: 2006 | 170Mb

Its title notwithstanding, R&B from the Marquee was not a live album, nor was it cut at the Marquee: it was actually done at Decca Records' London studio, albeit in one long day's work and effectively live-in-the-studio. It was also the place where British blues began, at least as a recording proposition. Blues played by Britons had been part of the underground music scene since the mid-'50s, and Blues Incorporated had been a going concern in one form or another, initially guitarist Alexis Korner and harpist/singer Cyril Davies (actually, maybe the first two Britons to play blues); but by this time, the group also included Dick Heckstall-Smith (tenor sax, backing vocals), Keith Scott (piano), Spike Heatley (upright bass), and Graham Burbridge (drums), with Long John Baldry handling some lead vocals. For this record, Big Jim Sullivan also sang backup, and Teddy Wadmore provides a key cameo appearance for the electric bass guitar (then a new and alien instrument in this music).
The sound here is mostly out of late-'40s and early-'50s Chicago blues; in later years -- Blues Incorporated would embrace more diverse branches of the music in their performances -- and the outfit swings with a surprising degree of authenticity; they're somewhat stiffer than any actual Chicago outfit would be, but in England in 1962, this was as down-and-dirty as any homegrown outfit ever sounded. Korner's guitar leads things off with his own "Gotta Move," an instrumental that showcases the whole outfit, including a bracing duet between Davies' harmonica and Heckstall-Smith's sax: they give each give plenty of space to work around the other, here and also on Davies' own "Spooky But Nice," and it's easy to see why the two got along so well despite Davies' well-known antipathy to reed instruments and horns. Blues Incorporated was at its peak during the time this album was done, with its best and most powerful lineup, and never stronger in the vocal department -- Baldry has more flexibility, and is more a potential star (which he became) for his singing, while Davies is a pure, raw bluesman, with no concessions to pop music, and he sounds uncannily like Muddy Waters on "I Got My Brand on You." And this band swings, but it also rocks. "I Wanna Put a Tiger in Your Tank" is a forceful blues workout for its time, and when Wadmore's electric bass shows up on "Got My Mojo Working," you can hear the first recorded manifestation of what would become blues-rock in the hands of Blues Incorporated member/acolytes the Rolling Stones and the Pretty Things. Spike Heatley gets the spotlight briefly on the instrumental "Down Town," and lest anyone think that Alexis Korner is only a supporting player in his own band, nothing could be farther from the truth: his guitar, acoustic and mostly unamplified, helps drive everything here, and "Finkle's Café" and "Hoochie Coochie Man," among other tracks, give him the spotlight. ~Allmusic

Track listing
01. Gotta Move (2:32)
02. Rain Is Such A Lonesome Sound (2:54)
03. I Got My Brand On You (3:50)
04. Spooky But Nice (3:02)
05. Keep Your Hands Off (2:33)
06. I Wanna Put A Tiger In Your Tank (2:57)
07. I Got My Mojo Working (3:14)
08. Finkle's Cafe (2:50)
09. Hoochie Coochie (3:07)
10. Down Town (3:03)
11. How Long How Long Blues (3:05)
12. I Though I Heard That Train Whistle Blow (2:24)
13. She Fooled Me (2:21)
14. I'm Built For Comfort (2:24)
15. Hoochie Coochie Man (3:29)
16. Night Time Is The Right Time (4:23)
17. Everything She Needs (2:23)
18. Up-Town (2:30)
19. Blaydon Races (With Nancy Spain) (2:20)
~ (55:22)

Personnel
- Alexis Korner: acoustic guitar
- Cyril Davies: vocal (3,5,6,7,9) harmonica (except for 6)
- Dick Heckstall-Smith: tenor saxophone (except for 3) vocal chorus (7)
- Keith Scott: piano
- Spike Heatley: string bass (except for 7)
- Graham Burbidge: drums
- Long John Baldry: vocal (2,11,12) vocal chorus (7)
- Teddy Wadmore: bass guitar (7)
- Big Jim Sullivan: vocal chorus (7) and uncredited guitar

Exact Audio Copy V0.99 prebeta 4 from 23. January 2008

Отчёт EAC об извлечении, выполненном 4. января 2009, 17:46

Alexis Korner's Blues Incorporated / R'n'b from the Marquee: Expanded Edition

Дисковод: _NEC DVD_RW ND-3550A Adapter: 5 ID: 0

Режим чтения : Достоверность
?спользование точного потока : Да
Отключение кэ?а аудио : Да
?спользование указателей C2 : Нет

Коррекция смещения при чтении : 48
Способность читать области Lead-in и Lead-out : Нет
Заполнение пропущенных сэмплов ти?иной : Да
Удаление блоков с ти?иной в начале и конце : Нет
При вычислениях CRC использовались нулевые сэмплы : Да
?нтерфейс : Установленный вне?ний ASPI-интерфейс

Выходной формат : Monkey's Audio (без потерь)
Выбранный битрейт : High Lossless Compression
Качество : Высокий
Добавление ID3-тэга : Да
Утилита сжатия : C:\Program Files\Monkey's Audio\MAC.exe

TOC извлечённого CD Трек | Старт | Длительность | Начальный сектор | Конечный сектор
-------
1 | 0:00.00 | 2:31.60 | 0 | 11384
2 | 2:31.60 | 2:53.60 | 11385 | 24419
3 | 5:25.45 | 3:50.35 | 24420 | 41704
4 | 9:16.05 | 3:02.00 | 41705 | 55354
5 | 12:18.05 | 2:32.70 | 55355 | 66824
6 | 14:51.00 | 2:56.45 | 66825 | 80069
7 | 17:47.45 | 3:13.68 | 80070 | 94612
8 | 21:01.38 | 2:50.05 | 94613 | 107367
9 | 23:51.43 | 3:07.25 | 107368 | 121417
10 | 26:58.68 | 3:03.04 | 121418 | 135146
11 | 30:01.72 | 3:05.15 | 135147 | 149036
12 | 33:07.12 | 2:24.02 | 149037 | 159838
13 | 35:31.14 | 2:21.35 | 159839 | 170448
14 | 37:52.49 | 2:23.68 | 170449 | 181241
15 | 40:16.42 | 3:29.06 | 181242 | 196922
16 | 43:45.48 | 4:22.67 | 196923 | 216639
17 | 48:08.40 | 2:23.17 | 216640 | 227381
18 | 50:31.57 | 2:29.71 | 227382 | 238627
19 | 53:01.53 | 2:20.05 | 238628 | 249132

Характеристики диапазона извлечения и сообщения об о?ибках

Выбранный диапазон ?мя файла D:\Downloads\Alexis Korner's Blues Incorporated - R'n'B from the Marquee Expanded Edition\Alexis Korner's Blues Incorporated - R'n'b from the Marquee Expanded Edition.wav Пиковый уровень 95.5 %
Качество диапазона 100.0 %
CRC теста 9E24CA3C
CRC копии 9E24CA3C
Копирование... OK

О?ибок не произо?ло


AccurateRip: сводка

Трек 1 нет в базе данных
Трек 2 нет в базе данных
Трек 3 нет в базе данных
Трек 4 нет в базе данных
Трек 5 нет в базе данных
Трек 6 нет в базе данных
Трек 7 нет в базе данных
Трек 8 нет в базе данных
Трек 9 нет в базе данных
Трек 10 нет в базе данных
Трек 11 нет в базе данных
Трек 12 нет в базе данных
Трек 13 нет в базе данных
Трек 14 нет в базе данных
Трек 15 нет в базе данных
Трек 16 нет в базе данных
Трек 17 нет в базе данных
Трек 18 нет в базе данных
Трек 19 нет в базе данных

Ни одного трека нет в базе AccurateRip

Конец отчёта

[CUETools log; Date: 2015.01.07. 12:09:58; Version: 2.1.4]
[CTDB TOCID: iZXcfKShWhRpmMXv0lnB2JNET40-] found.
Track | CTDB Status
1 | (1/1) Accurately ripped
2 | (1/1) Accurately ripped
3 | (1/1) Accurately ripped
4 | (1/1) Accurately ripped
5 | (1/1) Accurately ripped
6 | (1/1) Accurately ripped
7 | (1/1) Accurately ripped
8 | (1/1) Accurately ripped
9 | (1/1) Accurately ripped
10 | (1/1) Accurately ripped
11 | (1/1) Accurately ripped
12 | (1/1) Accurately ripped
13 | (1/1) Accurately ripped
14 | (1/1) Accurately ripped
15 | (1/1) Accurately ripped
16 | (1/1) Accurately ripped
17 | (1/1) Accurately ripped
18 | (1/1) Accurately ripped
19 | (1/1) Accurately ripped
[AccurateRip ID: 0026915b-021b3cc6-030cf913] found.
Track [ CRC | V2 ] Status
01 [a124ce6f|275248c4] (3+3/6) Accurately ripped
02 [2e32f037|f8b5b4bc] (3+3/6) Accurately ripped
03 [5eff4970|3816d92e] (3+3/6) Accurately ripped
04 [cd814ecb|17b20848] (3+3/6) Accurately ripped
05 [41fca7c1|3996030a] (3+3/6) Accurately ripped
06 [f040c0cf|60e22ba1] (3+3/6) Accurately ripped
07 [390113ee|ccb1be36] (3+3/6) Accurately ripped
08 [04a3e9de|db39d2bc] (3+3/6) Accurately ripped
09 b7a7dc0|3a8a5dfe (3+3/6) Accurately ripped
10 [643b5778|2c1ac439] (3+3/6) Accurately ripped
11 6d8c223|d4c8add1 (3+3/6) Accurately ripped
12 [34157732|0213c43b] (3+3/6) Accurately ripped
13 [e7e42871|a6cc37ef] (3+3/6) Accurately ripped
14 [91ba7315|3d350de2] (3+3/6) Accurately ripped
15 [c5cae6e0|237aed57] (3+3/6) Accurately ripped
16 [4a9f74b9|f5af654a] (3+3/6) Accurately ripped
17 [8ec91ef5|f2aff0da] (3+3/6) Accurately ripped
18 [49af3dee|85fb3dee] (3+3/6) Accurately ripped
19 [a4eb09f1|542d40e7] (3+3/6) Accurately ripped

Track Peak [ CRC32 ] [W/O NULL]
-- 95,5 [9E24CA3C] [C6E316BB]
01 92,8 [2888B338] [F9919A16]
02 95,5 [FEEA6BB9] [F62D96AC]
03 92,5 [62C10320] [C8E96877]
04 93,0 [EF772047] [174B8BBE]
05 92,4 [C4671452] [ECAA15C3]
06 92,5 [50CDE116] [5C6F9445]
07 86,5 [9FA1810E] [7DD40CBE]
08 92,9 [A0F47D5D] [15E3B92B]
09 93,0 [44480E75] [8D6C9A32]
10 92,4 [A64FB996] [81C56278]
11 92,7 [0929BD6E] 93834B1
12 92,5 [54F2A286] [677486DF]
13 72,7 [6466F41A] [D08D0982]
14 73,5 [1550C960] [8ED4C493]
15 82,8 C4BA2B9 [CABD9E5A]
16 66,2 [03E1D513] [50484F62]
17 73,7 970515B [88E89457]
18 70,9 [F01B51E0] [4AD54425]
19 73,1 [91CF7527] [03B0F965]

Thx to audelas
DOWNLOAD LINKS:
Buy Premium From My Links To Get Resumable Support,Max Speed & Support Me


Links are Interchangeable - No Password - Single Extraction

 
 
 
Dear visitor, you went to the site as an unregistered user. We encourage you to register or enter the site under your name.
 
   
 
 (Votes #: 0)