» » VA - Lennon & McCartney Songbook Vol. 2 (1990)
Advertise
onlinemovies


VA - Lennon & McCartney Songbook Vol. 2 (1990)

Published On: 12-01-2015, 16:37
http://i67.fastpic.ru/big/2015/0112/8f/d59ea64d36025c812ec56aa47ec6678f.jpg

VA - Lennon & McCartney Songbook Vol. 2 (1990)
EAC Rip | FLAC Tracks + Cue + Log - 429 MB | MP3 CBR @320 kbps - 172 MB | Full scans - 28.9 MB
Label: The Connoisseur Collection Limited. | Catalog.#: VSOP CD 162 | Genre: Pop Rock

"Compilation of covers of Beatles' classics by wide array of pop & rock stars, including Dwight Yoakam, Eight Yoakam, Cornershop, Linda Ronstadt, Yes, Vanilla Fudge, Phil Collins, Harpers Bizarre, Louise Goffin and many more!"

Track Listing:

01. Gary US Bonds - It's Only Love - 03:07
02. Flamin' Groovies - Misery - 01:39
03. Billy Preston - Blackbird - 02:48
04. Fats Domino - Lady Madonna - 02:19
05. Crickets - I Want To Hold Your Hand - 02:20
06. Joe Cocker - I'll Cry Instead - 01:43
07. Sandie Shaw - Love Me Do - 02:32
08. Deep Purple - Help - 05:59
09. Flamin' Groovies - There's A Place - 01:52
10. Bryan Ferry - You Won't See Me - 02:32
11. Billy Bragg - She's Leaving Home - 02:59
12. Esther Phillips - And I Love Him - 02:42
13. Emmylou Harris - For No One - 03:43
14. Wet, Wet, Wet - With A Little Help From My Friends - 02:38
15. Nylons - This Boy - 03:00
16. Bo Street Runners - Drive My Car - 02:30
17. Mike Shannon With The Strangers - One And One Is Two - 02:13
18. Applejacks - Like Dreamers Do - 02:33
19. Dillard & Clark - Don't Let Me Down - 03:50
20. Spooky Tooth - I Am The Walrus - 06:26
21. Todd Rundgren - Rain - 03:18
22. Peter & Gordon - Nobody I Know - 02:31
23. Fourmost - Hello Little Girl - 01:53
24. Vanilla Fudge - Ticket To Ride - 05:57

Exact Audio Copy V1.0 beta 3 from 29. August 2011

EAC extraction logfile from 26. September 2011, 12:21

Various Artists / Lennon & McCartney Songbook Volume 2

Used drive : HL-DT-STDVDRAM GSA-T40N Adapter: 1 ID: 0

Read mode : Secure
Utilize accurate stream : Yes
Defeat audio cache : Yes
Make use of C2 pointers : No

Read offset correction : 667
Overread into Lead-In and Lead-Out : No
Fill up missing offset samples with silence : Yes
Delete leading and trailing silent blocks : No
Null samples used in CRC calculations : Yes
Used interface : Native Win32 interface for Win NT & 2000
Gap handling : Appended to previous track

Used output format : User Defined Encoder
Selected bitrate : 1024 kBit/s
Quality : High
Add ID3 tag : No
Command line compressor : C:\Program Files\Exact Audio Copy\Flac\flac.exe
Additional command line options : -8 -V -T "ARTIST=%artist%" -T "TITLE=%title%" -T "ALBUM=%albumtitle%" -T "DATE=%year%" -T "TRACKNUMBER=%tracknr%" -T "GENRE=%genre%" -T "PERFORMER=%albuminterpret%" -T "COMPOSER=%composer%" %haslyrics%--tag-from-file=LYRICS="%lyricsfile%"%haslyrics% -T "ALBUMARTIST=%albumartist%" -T "ALBUM ARTIST=%albumartist%" -T "DISCNUMBER=%cdnumber%" -T "TOTALDISCS=%totalcds%" -T "TOTALTRACKS=%numtracks%" -T "COMMENT=EAC V1.0 beta 2, Secure Mode, Test & Copy, AccurateRip, FLAC -8" %source% -o %dest%

TOC of the extracted CD Track | Start | Length | Start sector | End sector
-----------
1 | 0:00.33 | 3:06.72 | 33 | 14054
2 | 3:07.30 | 1:38.48 | 14055 | 21452
3 | 4:46.03 | 2:47.40 | 21453 | 34017
4 | 7:33.43 | 2:18.45 | 34018 | 44412
5 | 9:52.13 | 2:19.65 | 44413 | 54902
6 | 12:12.03 | 1:42.72 | 54903 | 62624
7 | 13:55.00 | 2:31.40 | 62625 | 73989
8 | 16:26.40 | 5:58.13 | 73990 | 100852
9 | 22:24.53 | 1:51.57 | 100853 | 109234
10 | 24:16.35 | 2:31.35 | 109235 | 120594
11 | 26:47.70 | 2:59.05 | 120595 | 134024
12 | 29:47.00 | 2:41.65 | 134025 | 146164
13 | 32:28.65 | 3:42.25 | 146165 | 162839
14 | 36:11.15 | 2:37.55 | 162840 | 174669
15 | 38:48.70 | 2:59.43 | 174670 | 188137
16 | 41:48.38 | 2:29.42 | 188138 | 199354
17 | 44:18.05 | 2:12.45 | 199355 | 209299
18 | 46:30.50 | 2:32.25 | 209300 | 220724
19 | 49:03.00 | 3:49.20 | 220725 | 237919
20 | 52:52.20 | 6:25.40 | 237920 | 266834
21 | 59:17.60 | 3:18.00 | 266835 | 281684
22 | 62:35.60 | 2:30.68 | 281685 | 293002
23 | 65:06.53 | 1:52.50 | 293003 | 301452
24 | 66:59.28 | 5:56.47 | 301453 | 328199

Track 1 Filename E:\Video\Audio\[01] Gary US Bonds - It's Only Love.wav Pre-gap length 0:00:02.44 Peak level 92.6 %
Extraction speed 2.3 X
Track quality 100.0 %
Test CRC 0D03FAAB
Copy CRC 0D03FAAB
Cannot be verified as accurate (confidence 4) [728183CD], AccurateRip returned [D2D00742] (AR v2)
Copy OK

Track 2 Filename E:\Video\Audio\[02] Flamin' Groovies - Misery.wav Pre-gap length 0:00:01.86 Peak level 93.4 %
Extraction speed 2.1 X
Track quality 100.0 %
Test CRC BEBF1E1B
Copy CRC BEBF1E1B
Cannot be verified as accurate (confidence 5) [A371ED91], AccurateRip returned [37410EDF] (AR v2)
Copy OK

Track 3 Filename E:\Video\Audio\[03] Billy Preston - Blackbird.wav Pre-gap length 0:00:01.26 Peak level 95.3 %
Extraction speed 2.5 X
Track quality 100.0 %
Test CRC 67C48AC4
Copy CRC 67C48AC4
Cannot be verified as accurate (confidence 5) [F76DC5D6], AccurateRip returned [5DC2CEEE] (AR v2)
Copy OK

Track 4 Filename E:\Video\Audio\[04] Fats Domino - Lady Madonna.wav Pre-gap length 0:00:01.77 Peak level 97.8 %
Extraction speed 2.6 X
Track quality 100.0 %
Test CRC 3B79944F
Copy CRC 3B79944F
Cannot be verified as accurate (confidence 5) [FE553081], AccurateRip returned [37B26DB7] (AR v2)
Copy OK

Track 5 Filename E:\Video\Audio\[05] Crickets - I Want To Hold Your Hand.wav Pre-gap length 0:00:01.77 Peak level 89.4 %
Extraction speed 2.7 X
Track quality 100.0 %
Test CRC 51524D30
Copy CRC 51524D30
Cannot be verified as accurate (confidence 5) [2B383E24], AccurateRip returned [98CF7F07] (AR v2)
Copy OK

Track 6 Filename E:\Video\Audio\[06] Joe Cocker - I'll Cry Instead.wav Pre-gap length 0:00:01.50 Peak level 100.0 %
Extraction speed 2.6 X
Track quality 100.0 %
Test CRC 29AA21D9
Copy CRC 29AA21D9
Cannot be verified as accurate (confidence 5) [480854CC], AccurateRip returned [027026FC] (AR v2)
Copy OK

Track 7 Filename E:\Video\Audio\[07] Sandie Shaw - Love Me Do.wav Pre-gap length 0:00:00.65 Peak level 79.4 %
Extraction speed 3.0 X
Track quality 100.0 %
Test CRC D4858CBA
Copy CRC D4858CBA
Cannot be verified as accurate (confidence 5) [2AC0BF61], AccurateRip returned [376F5ED1] (AR v2)
Copy OK

Track 8 Filename E:\Video\Audio\[08] Deep Purple - Help.wav Pre-gap length 0:00:01.69 Peak level 100.0 %
Extraction speed 3.5 X
Track quality 100.0 %
Test CRC 0607045C
Copy CRC 0607045C
Cannot be verified as accurate (confidence 5) FB4A257, AccurateRip returned [6824C020] (AR v2)
Copy OK

Track 9 Filename E:\Video\Audio\[09] Flamin' Groovies - There's A Place.wav Pre-gap length 0:00:01.64 Peak level 96.9 %
Extraction speed 3.0 X
Track quality 100.0 %
Test CRC C29FBF37
Copy CRC C29FBF37
Cannot be verified as accurate (confidence 5) [A5964162], AccurateRip returned [57DC0DD2] (AR v2)
Copy OK

Track 10 Filename E:\Video\Audio\[10] Bryan Ferry - You Won't See Me.wav Pre-gap length 0:00:00.86 Peak level 100.0 %
Extraction speed 3.4 X
Track quality 100.0 %
Test CRC C68B39E8
Copy CRC C68B39E8
Cannot be verified as accurate (confidence 5) [D9194FBD], AccurateRip returned [A4912D19] (AR v2)
Copy OK

Track 11 Filename E:\Video\Audio\[11] Billy Bragg - She's Leaving Home.wav Pre-gap length 0:00:01.56 Peak level 70.3 %
Extraction speed 3.6 X
Track quality 100.0 %
Test CRC 90395CD9
Copy CRC 90395CD9
Cannot be verified as accurate (confidence 5) [E415515D], AccurateRip returned [9CFAF9C3] (AR v2)
Copy OK

Track 12 Filename E:\Video\Audio\[12] Esther Phillips - And I Love Him.wav Pre-gap length 0:00:01.02 Peak level 65.8 %
Extraction speed 3.5 X
Track quality 100.0 %
Test CRC 0D302AA9
Copy CRC 0D302AA9
Cannot be verified as accurate (confidence 5) 6524CDA, AccurateRip returned [262DD879] (AR v2)
Copy OK

Track 13 Filename E:\Video\Audio\[13] Emmylou Harris - For No One.wav Pre-gap length 0:00:01.36 Peak level 78.4 %
Extraction speed 3.9 X
Track quality 100.0 %
Test CRC 2F53282C
Copy CRC 2F53282C
Cannot be verified as accurate (confidence 5) [9FB9EA75], AccurateRip returned [2DB2E266] (AR v2)
Copy OK

Track 14 Filename E:\Video\Audio\[14] Wet, Wet, Wet - With A Little Help From My Friends.wav Pre-gap length 0:00:02.13 Peak level 86.3 %
Extraction speed 3.8 X
Track quality 100.0 %
Test CRC 5CE470E0
Copy CRC 5CE470E0
Cannot be verified as accurate (confidence 5) [AF0CF8AE], AccurateRip returned [31734668] (AR v2)
Copy OK

Track 15 Filename E:\Video\Audio\[15] Nylons - This Boy.wav Pre-gap length 0:00:00.82 Peak level 80.8 %
Extraction speed 4.0 X
Track quality 100.0 %
Test CRC D199B571
Copy CRC D199B571
Cannot be verified as accurate (confidence 5) [0CF888E5], AccurateRip returned [02ACB027] (AR v2)
Copy OK

Track 16 Filename E:\Video\Audio\[16] Bo Street Runners - Drive My Car.wav Pre-gap length 0:00:02.37 Peak level 75.9 %
Extraction speed 4.0 X
Track quality 100.0 %
Test CRC 5B9CE2CB
Copy CRC 5B9CE2CB
Cannot be verified as accurate (confidence 4) [F2D3F2E2], AccurateRip returned B3860E0 (AR v2)
Copy OK

Track 17 Filename E:\Video\Audio\[17] Mike Shannon With The Strangers - One And One Is Two.wav Pre-gap length 0:00:01.40 Peak level 83.5 %
Extraction speed 4.0 X
Track quality 100.0 %
Test CRC 2182E1D9
Copy CRC 2182E1D9
Cannot be verified as accurate (confidence 5) [ED951DB3], AccurateRip returned [C94FA549] (AR v2)
Copy OK

Track 18 Filename E:\Video\Audio\[18] Applejacks - Like Dreamers Do.wav Pre-gap length 0:00:01.22 Peak level 88.7 %
Extraction speed 4.0 X
Track quality 100.0 %
Test CRC C8D75594
Copy CRC C8D75594
Cannot be verified as accurate (confidence 5) [C9C440CF], AccurateRip returned F2BE719 (AR v2)
Copy OK

Track 19 Filename E:\Video\Audio\[19] Dillard & Clark - Don't Let Me Down.wav Pre-gap length 0:00:01.73 Peak level 100.0 %
Extraction speed 4.4 X
Track quality 100.0 %
Test CRC 03E764CF
Copy CRC 03E764CF
Cannot be verified as accurate (confidence 4) [7B91A6B2], AccurateRip returned [18297271] (AR v2)
Copy OK

Track 20 Filename E:\Video\Audio\[20] Spooky Tooth - I Am The Walrus.wav Pre-gap length 0:00:01.16 Peak level 100.0 %
Extraction speed 5.0 X
Track quality 100.0 %
Test CRC 2921FC27
Copy CRC 2921FC27
Cannot be verified as accurate (confidence 5) [A94D05CE], AccurateRip returned [270385FE] (AR v2)
Copy OK

Track 21 Filename E:\Video\Audio\[21] Todd Rundgren - Rain.wav Pre-gap length 0:00:01.00 Peak level 84.1 %
Extraction speed 4.7 X
Track quality 100.0 %
Test CRC 27781B7A
Copy CRC 27781B7A
Cannot be verified as accurate (confidence 4) [D94885EC], AccurateRip returned [EE50174E] (AR v2)
Copy OK

Track 22 Filename E:\Video\Audio\[22] Peter & Gordon - Nobody I Know.wav Pre-gap length 0:00:01.46 Peak level 82.7 %
Extraction speed 4.4 X
Track quality 100.0 %
Test CRC 3C6B5F1C
Copy CRC 3C6B5F1C
Cannot be verified as accurate (confidence 5) [21A7D46E], AccurateRip returned [FD421F6D] (AR v2)
Copy OK

Track 23 Filename E:\Video\Audio\[23] Fourmost - Hello Little Girl.wav Pre-gap length 0:00:01.64 Peak level 85.1 %
Extraction speed 4.4 X
Track quality 100.0 %
Test CRC 64BFBBF5
Copy CRC 64BFBBF5
Cannot be verified as accurate (confidence 5) [8E759E3B], AccurateRip returned [2DEE322D] (AR v2)
Copy OK

Track 24 Filename E:\Video\Audio\[24] Vanilla Fudge - Ticket To Ride.wav Pre-gap length 0:00:01.54 Peak level 100.0 %
Extraction speed 5.3 X
Track quality 100.0 %
Test CRC B0B630CB
Copy CRC B0B630CB
Cannot be verified as accurate (confidence 5) [145B934A], AccurateRip returned [07993ED2] (AR v2)
Copy OK

No tracks could be verified as accurate
You may have a different pressing from the one(s) in the database

No errors occurred

End of status report

==== Log checksum 30CD708223698D8AECE1174B87B8ADEAC66C99C9AB48518BA43674C8560F680B ====

[CUETools log; Date: 1/8/2015 5:04:00 PM; Version: 2.1.4]
Pregap length 00:00:33.
[CTDB TOCID: QwCl9FfmnEMXHe.v1w3wBEALQqA-] disk not present in database.
[AccurateRip ID: 0039af87-03f8e657-81111818] found.
Track [ CRC | V2 ] Status
01 [551f842b|728183cd] (00+06/16) Accurately ripped
02 [12a2fa93|a371ed91] (00+06/17) Accurately ripped
03 [36aafcf8|f76dc5d6] (00+06/17) Accurately ripped
04 [2f36b46f|fe553081] (00+06/16) Accurately ripped
05 [d230df0e|2b383e24] (00+06/17) Accurately ripped
06 [1370aef4|480854cc] (00+06/18) Accurately ripped
07 [5cc2176b|2ac0bf61] (00+06/17) Accurately ripped
08 [c588aba4|bfb4a257] (00+05/17) Accurately ripped
09 [62b5de95|a5964162] (00+06/17) Accurately ripped
10 [032ddaab|d9194fbd] (00+06/19) Accurately ripped
11 [4505e5a1|e415515d] (00+06/18) Accurately ripped
12 [6b367c13|b6524cda] (00+06/16) Accurately ripped
13 [46172e83|9fb9ea75] (00+06/17) Accurately ripped
14 [9f6a83a8|af0cf8ae] (00+05/16) Accurately ripped
15 [e5bf11e5|0cf888e5] (00+06/17) Accurately ripped
16 [48ad876f|f2d3f2e2] (00+06/16) Accurately ripped
17 [77dce01c|ed951db3] (00+06/17) Accurately ripped
18 [2f7c9e44|c9c440cf] (00+06/16) Accurately ripped
19 [1e11ef0a|7b91a6b2] (00+06/16) Accurately ripped
20 [a6ef29ee|a94d05ce] (00+04/16) Accurately ripped
21 [36487911|d94885ec] (00+04/14) Accurately ripped
22 [365cc754|21a7d46e] (00+04/13) Accurately ripped
23 [f47d036b|8e759e3b] (00+04/13) Accurately ripped
24 [c1b2a64a|145b934a] (00+04/13) Accurately ripped
Offsetted by -1570:
01 [d2d00742] (04/16) Accurately ripped
02 [37410edf] (05/17) Accurately ripped
03 [5dc2ceee] (05/17) Accurately ripped
04 [37b26db7] (05/16) Accurately ripped
05 [98cf7f07] (05/17) Accurately ripped
06 [027026fc] (05/18) Accurately ripped
07 [376f5ed1] (05/17) Accurately ripped
08 [6824c020] (05/17) Accurately ripped
09 [57dc0dd2] (05/17) Accurately ripped
10 [a4912d19] (06/19) Accurately ripped
11 [9cfaf9c3] (05/18) Accurately ripped
12 [262dd879] (05/16) Accurately ripped
13 [2db2e266] (05/17) Accurately ripped
14 [31734668] (05/16) Accurately ripped
15 [02acb027] (05/17) Accurately ripped
16 b3860e0 (04/16) Accurately ripped
17 [c94fa549] (05/17) Accurately ripped
18 f2be719 (05/16) Accurately ripped
19 [18297271] (04/16) Accurately ripped
20 [270385fe] (05/16) Accurately ripped
21 [ee50174e] (04/14) Accurately ripped
22 [fd421f6d] (05/13) Accurately ripped
23 [2dee322d] (05/13) Accurately ripped
24 [07993ed2] (05/13) Accurately ripped
Offsetted by 72:
01 [960ba1f6] (00/16) No match (V2 was not tested)
02 [ac9a4411] (00/17) No match (V2 was not tested)
03 [1b6c7368] (00/17) No match (V2 was not tested)
04 [44dcd7b8] (00/16) No match (V2 was not tested)
05 [d245c22c] (00/17) No match (V2 was not tested)
06 [5fe86890] (00/18) No match (V2 was not tested)
07 [dbcb2aff] (00/17) No match (V2 was not tested)
08 [6e4c3746] (00/17) No match (V2 was not tested)
09 [ddd41680] (00/17) No match (V2 was not tested)
10 [f2446657] (00/19) No match (V2 was not tested)
11 [41e3b1d3] (00/18) No match (V2 was not tested)
12 [25762397] (00/16) No match (V2 was not tested)
13 [f7086d28] (00/17) No match (V2 was not tested)
14 [f9c0007f] (00/16) No match (V2 was not tested)
15 [c9440406] (00/17) No match (V2 was not tested)
16 [d3f9e106] (00/16) No match (V2 was not tested)
17 [8a91eae0] (00/17) No match (V2 was not tested)
18 [cd358e2a] (00/16) No match (V2 was not tested)
19 [7a06dff6] (00/16) No match (V2 was not tested)
20 [3640b254] (00/16) No match (V2 was not tested)
21 [f6182f4a] (00/14) No match (V2 was not tested)
22 [8d121964] (00/13) No match (V2 was not tested)
23 [3313b4a3] (00/13) No match (V2 was not tested)
24 [1a02bf3b] (00/13) No match

Track Peak [ CRC32 ] [W/O NULL] [ LOG ]
-- 100.0 [3AA95A18] [909A18B2]
01 92.6 [0D03FAAB] [7BE6DB57] CRC32
02 93.4 EBF1E1B [079C59B7] CRC32
03 95.3 [67C48AC4] [EF531D57] CRC32
04 97.8 [3B79944F] [CEA0604A] CRC32
05 89.4 [51524D30] [EDFAB394] CRC32
06 100.0 [29AA21D9] [945A749C] CRC32
07 79.3 [D4858CBA] [EB0824D2] CRC32
08 100.0 [0607045C] [3E6C9E7C] CRC32
09 96.9 [C29FBF37] [1CFEF311] CRC32
10 100.0 [C68B39E8] [FE952508] CRC32
11 70.3 [90395CD9] [F6A13DA0] CRC32
12 65.8 [0D302AA9] [3377FE45] CRC32
13 78.4 [2F53282C] [36ED129D] CRC32
14 86.3 [5CE470E0] [7186F0A2] CRC32
15 80.8 [D199B571] [7B8255C4] CRC32
16 75.9 [5B9CE2CB] [1C429A37] CRC32
17 83.5 [2182E1D9] [2D172A7C] CRC32
18 88.7 [C8D75594] [EEA16E84] CRC32
19 100.0 [03E764CF] [CFECB804] CRC32
20 100.0 [2921FC27] [78B9D782] CRC32
21 84.1 [27781B7A] [996DED7A] CRC32
22 82.7 [3C6B5F1C] [F1464147] CRC32
23 85.1 [64BFBBF5] [F516CF11] CRC32
24 100.0 0B630CB [F36D9799] CRC32

Released Date: 1990
Format: CD, Compilation
Length: 72:42

http://i63.fastpic.ru/big/2015/0112/dc/4dc824296829a2e7769b85ad2f32bcdc.jpg

http://i63.fastpic.ru/big/2015/0112/38/c9f1e1d8704e37edcf21119613dccf38.jpg


DOWNLOAD LINKS:
Buy Premium From My Links To Get Resumable Support,Max Speed & Support Me


Links are Interchangeable - No Password - Single Extraction
[related-news][/related-news]
Dear visitor, you are browsing our website as Guest.
We strongly recommend you to register and login to view hidden contents.

Comments:

Add Comments
 

This site doesn't store any files on its server. We only index and link to content provided by other sites.