» » History Channel - Modern Marvels: Edwards Air Force Base (2005)
Advertise
onlinemovies


History Channel - Modern Marvels: Edwards Air Force Base (2005)

Published On: 12-01-2015, 17:02

http://i63.fastpic.ru/big/2015/0112/d4/054bfb11c3d00d224ce70b080d6a4fd4.jpg
History Channel - Modern Marvels: Edwards Air Force Base (2005)
HDTV | 960x720 | .MKV/AVC @ 1848 Kbps | 44mn 28s | Audio: English AC3 384 kbps, 2 channels | Subs: None | 725 MiB
Genre: Documentary

"Examine the colorful history of the premier flight test center, and America's most important aviation facility for more than 60 years, Edwards Air Force Base in California. Every single aircraft to enter the Air Force's inventory has been put through its paces at Edwards, along with many Navy and Army aircraft as well. With unprecedented access to several forgotten and abandoned facilities on the base, we are guided by James Young, former chief historian for the U.S. Air Force. Today, Edwards continues to push the envelope. Among the many cutting-edge projects currently being tested is the Airborne Laser, designed to focus a basketball-sized spot of intense heat that could destroy a ballistic missile."

General
Unique ID : 64201894134360776627981011242759277852 (0x304CD5C52E052E824755DF463C40CD1C)
Complete name : HC.Modern.Marvels.Edwards.Air.Force.Base.mkv
Format : Matroska
Format version : Version 2
File size : 725 MiB
Duration : 44mn 28s
Overall bit rate : 2 278 Kbps

Video
ID : 1
Format : AVC
Format/Info : Advanced Video Codec
Format profile : [email protected]
Format settings, CABAC : Yes
Format settings, ReFrames : 4 frames
Codec ID : V_MPEG4/ISO/AVC
Duration : 44mn 28s
Bit rate : 1 848 Kbps
Width : 960 pixels
Height : 720 pixels
Display aspect ratio : 4:3
Frame rate : 29.970 fps
Color space : YUV
Chroma subsampling : 4:2:0
Bit depth : 8 bits
Scan type : Progressive
Bits/(Pixel*Frame) : 0.089
Stream size : 588 MiB (81%)
Writing library : x264 core 123 r2189 35cf912
Encoding settings : cabac=1 / ref=3 / deblock=1:0:0 / analyse=0x3:0x133 / me=hex / subme=7 / psy=1 / psy_rd=1.00:0.00 / mixed_ref=1 / me_range=16 / chroma_me=1 / trellis=1 / 8x8dct=1 / cqm=0 / deadzone=21,11 / fast_pskip=1 / chroma_qp_offset=-2 / threads=6 / sliced_threads=0 / nr=0 / decimate=1 / interlaced=0 / bluray_compat=0 / constrained_intra=0 / bframes=3 / b_pyramid=2 / b_adapt=1 / b_bias=0 / direct=1 / weightb=1 / open_gop=0 / weightp=2 / keyint=250 / keyint_min=25 / scenecut=40 / intra_refresh=0 / rc_lookahead=40 / rc=crf / mbtree=1 / crf=20.0 / qcomp=0.60 / qpmin=10 / qpmax=51 / qpstep=4 / ip_ratio=1.40 / aq=1:1.00
Default : Yes
Forced : No

Audio
ID : 2
Format : AC-3
Format/Info : Audio Coding 3
Mode extension : CM (complete main)
Format settings, Endianness : Big
Codec ID : A_AC3
Duration : 44mn 28s
Bit rate mode : Constant
Bit rate : 384 Kbps
Channel(s) : 2 channels
Channel positions : Front: L R
Sampling rate : 48.0 KHz
Bit depth : 16 bits
Compression mode : Lossy
Delay relative to video : 8ms
Stream size : 122 MiB (17%)
Default : Yes
Forced : No

Screenshots:

http://i65.fastpic.ru/big/2015/0112/70/03d0d9833f73d98069ebdcdcb4a78970.jpg

http://i64.fastpic.ru/big/2015/0112/5a/8f6296e531b98e48de9c65102891075a.jpg

http://i67.fastpic.ru/big/2015/0112/7d/70045bb0edf720e70770521355d0087d.jpg

http://i63.fastpic.ru/big/2015/0112/3f/025ba585b4e97dd351ee5c471463133f.jpg


DOWNLOAD LINKS:
Buy Premium From My Links To Get Resumable Support,Max Speed & Support Me


Links are Interchangeable - No Password - Single Extraction
[related-news][/related-news]
Dear visitor, you are browsing our website as Guest.
We strongly recommend you to register and login to view hidden contents.

Comments:

Add Comments
 

This site doesn't store any files on its server. We only index and link to content provided by other sites.