» » Electric Boogaloo: The Wild, Untold Story of Cannon Films (2014)
Advertise
onlinemovies


Electric Boogaloo: The Wild, Untold Story of Cannon Films (2014)

Published On: 12-01-2015, 17:17

http://i67.fastpic.ru/big/2015/0112/c0/729df982caf179bed766b2e67213acc0.jpg
Electric Boogaloo: The Wild, Untold Story of Cannon Films (2014)
DVDRip | 720x400 | .MP4/AVC @ 1249 Kbps | 1h 46mn | Audio: English AAC 317 kbps, 6 channels | Subs: None | 1.17 GiB
Genre: Documentary | Action | History

"A documentary about Menahem Golan and Yoram Globus - two movie-obsessed cousins whose passion for cinema changed the way movies were made and marketed - and the tale of how this passion ultimately led to the demise of the company they built together."

More info

General
Complete name : Electric.Boogaloo.The.Wild.Untold.Story.of.Cannon.Films.mp4
Format : MPEG-4
Format profile : Base Media
Codec ID : isom
File size : 1.17 GiB
Duration : 1h 46mn
Overall bit rate mode : Variable
Overall bit rate : 1 570 Kbps

Video
ID : 1
Format : AVC
Format/Info : Advanced Video Codec
Format profile : [email protected]
Format settings, CABAC : Yes
Format settings, ReFrames : 3 frames
Codec ID : avc1
Codec ID/Info : Advanced Video Coding
Duration : 1h 46mn
Bit rate : 1 249 Kbps
Maximum bit rate : 6 820 Kbps
Width : 720 pixels
Height : 400 pixels
Display aspect ratio : 16:9
Frame rate mode : Constant
Frame rate : 23.976 fps
Color space : YUV
Chroma subsampling : 4:2:0
Bit depth : 8 bits
Scan type : Progressive
Bits/(Pixel*Frame) : 0.181
Stream size : 950 MiB (80%)
Writing library : x264 core 104 r1683 62997d6
Encoding settings : cabac=1 / ref=3 / deblock=1:0:0 / analyse=0x3:0x133 / me=umh / subme=7 / psy=1 / psy_rd=1.00:0.00 / mixed_ref=1 / me_range=16 / chroma_me=1 / trellis=1 / 8x8dct=1 / cqm=0 / deadzone=21,11 / fast_pskip=1 / chroma_qp_offset=-2 / threads=3 / sliced_threads=0 / nr=0 / decimate=1 / interlaced=0 / constrained_intra=0 / bframes=3 / b_pyramid=0 / b_adapt=1 / b_bias=0 / direct=1 / weightb=1 / open_gop=0 / weightp=2 / keyint=240 / keyint_min=24 / scenecut=40 / intra_refresh=0 / rc_lookahead=40 / rc=2pass / mbtree=1 / bitrate=1249 / ratetol=1.0 / qcomp=0.60 / qpmin=10 / qpmax=51 / qpstep=4 / cplxblur=20.0 / qblur=0.5 / vbv_maxrate=30000 / vbv_bufsize=30000 / ip_ratio=1.40 / aq=1:1.00 / nal_hrd=none
Encoded date : UTC 2015-01-05 14:00:58
Tagged date : UTC 2015-01-05 14:02:38

Audio
ID : 2
Format : AAC
Format/Info : Advanced Audio Codec
Format profile : LC
Codec ID : 40
Duration : 1h 46mn
Bit rate mode : Variable
Bit rate : 317 Kbps
Maximum bit rate : 336 Kbps
Channel(s) : 6 channels
Channel positions : Front: L C R, Side: L R, LFE
Sampling rate : 48.0 KHz
Compression mode : Lossy
Stream size : 241 MiB (20%)
Encoded date : UTC 2015-01-05 14:02:19
Tagged date : UTC 2015-01-05 14:02:38

Menu
00:00:00.000 : Chapter 1
00:02:17.800 : Chapter 2
00:19:00.933 : Chapter 3
00:32:55.333 : Chapter 4
00:54:14.866 : Chapter 5
01:00:55.033 : Chapter 6
01:07:01.666 : Chapter 7
01:23:35.699 : Chapter 8
01:43:10.466 : Chapter 9

Screenshots:

http://i63.fastpic.ru/big/2015/0112/33/e738b871e74ce6b6f9155df0b223a133.jpg

http://i65.fastpic.ru/big/2015/0112/27/aeecd75e0e72a6cd2c182bdc1ac8c627.jpg

http://i65.fastpic.ru/big/2015/0112/a5/b789d5ee28b3922b5db3aa0fb7ec09a5.jpg

http://i64.fastpic.ru/big/2015/0112/72/8912b75929b4a5236723ad19834f4772.jpg


DOWNLOAD LINKS:
Buy Premium From My Links To Get Resumable Support,Max Speed & Support Me


Links are Interchangeable - No Password - Single Extraction
[related-news][/related-news]
Dear visitor, you are browsing our website as Guest.
We strongly recommend you to register and login to view hidden contents.

Comments:

Add Comments
 

This site doesn't store any files on its server. We only index and link to content provided by other sites.