» » The Beach Boys - All Summer Long (1964) [2014, Universal Music Japan, UICY-40109]
Advertise
onlinemovies


The Beach Boys - All Summer Long (1964) [2014, Universal Music Japan, UICY-40109]

Published On: 12-01-2015, 18:32
http://i68.fastpic.ru/big/2015/0112/ff/18c0d63d92bfcd7f802d611c90e104ff.jpg

The Beach Boys - All Summer Long (1964)
EAC | Flac(Image) + Cue + Log & MP3 CBR 320Kbps
Universal Music Japan, UICY-40109 | ~ 158 or 61 Mb | Scans(png) -> 153 Mb
Pop Rock / Surf / Rock & Roll

"The best pre-1965 Beach Boys album featured their brilliant number one single "I Get Around," as well as other standout cuts in the beautifully sad "Wendy," "Little Honda" (one of their best hot rod tunes, covered by the Hondells for a hit), and their remake of the late-'50s doo wop classic "Hushabye."..."

The Beach Boys - All Summer Long (1964):

http://i66.fastpic.ru/big/2015/0112/19/db4c7d4a68e093e65a1cb95345543e19.jpg

Tracklist:

01. I Get Around 02:17
02. All Summer Long 02:12
03. Hushabye 02:41
04. Little Honda 01:54
05. We'll Run Away 02:04
06. Carl's Big Chance 02:31
07. Wendy 02:18
08. Do You Remember? 01:40
09. Girls On The Beach 02:25
10. Drive-In 01:56
11. Our Favorite Recording Sessions (Mono) 02:00
12. Don't Back Down 01:45

Exact Audio Copy V1.0 beta 3 from 29. August 2011

EAC extraction logfile from 8. January 2015, 10:29

The Beach Boys / All Summer Long PT-SHM

Used drive : PLEXTOR BD-R PX-B950SA Adapter: 6 ID: 0

Read mode : Secure
Utilize accurate stream : Yes
Defeat audio cache : Yes
Make use of C2 pointers : No

Read offset correction : 6
Overread into Lead-In and Lead-Out : No
Fill up missing offset samples with silence : Yes
Delete leading and trailing silent blocks : No
Null samples used in CRC calculations : Yes
Used interface : Native Win32 interface for Win NT & 2000

Used output format : Internal WAV Routines
Sample format : 44.100 Hz; 16 Bit; Stereo

TOC of the extracted CD Track | Start | Length | Start sector | End sector
-----------
1 | 0:00.00 | 2:17.28 | 0 | 10302
2 | 2:17.28 | 2:12.45 | 10303 | 20247
3 | 4:29.73 | 2:41.67 | 20248 | 32389
4 | 7:11.65 | 1:54.40 | 32390 | 40979
5 | 9:06.30 | 2:04.00 | 40980 | 50279
6 | 11:10.30 | 2:31.68 | 50280 | 61672
7 | 13:42.23 | 2:18.30 | 61673 | 72052
8 | 16:00.53 | 1:40.07 | 72053 | 79559
9 | 17:40.60 | 2:25.68 | 79560 | 90502
10 | 20:06.53 | 1:56.15 | 90503 | 99217
11 | 22:02.68 | 2:00.15 | 99218 | 108232
12 | 24:03.08 | 1:45.42 | 108233 | 116149

Range status and errors

Selected range Filename C:\Users\Meijin\Desktop\ALLexxess\The Beach Boys\1964 All Summer Long (Mini LP PT-SHM Universal Japan 2014)\The Beach Boys - All Summer Long PT-SHM.wav Peak level 97.1 %
Extraction speed 6.0 X
Range quality 100.0 %
Test CRC 26B4AAD2
Copy CRC 26B4AAD2
Copy OK

No errors occurred


AccurateRip summary

Track 1 not present in database
Track 2 not present in database
Track 3 not present in database
Track 4 not present in database
Track 5 not present in database
Track 6 not present in database
Track 7 not present in database
Track 8 not present in database
Track 9 not present in database
Track 10 not present in database
Track 11 not present in database
Track 12 not present in database

None of the tracks are present in the AccurateRip database

End of status report

foobar2000 1.2.9 / Dynamic Range Meter 1.1.1
log date: 2015-01-08 20:16:11

--
Analyzed: The Beach Boys / All Summer Long PT-SHM
--

DR Peak RMS Duration Track
--
DR11 -2.90 dB -16.48 dB 2:17 01-I Get Around
DR12 -2.92 dB -17.87 dB 2:13 02-All Summer Long
DR11 -3.38 dB -17.56 dB 2:42 03-Hushabye
DR12 -1.42 dB -16.01 dB 1:55 04-Little Honda
DR11 -3.39 dB -17.88 dB 2:04 05-We'll Run Away
DR14 -2.42 dB -19.40 dB 2:32 06-Carl's Big Chance
DR12 -1.23 dB -16.50 dB 2:18 07-Wendy
DR11 -1.17 dB -15.01 dB 1:40 08-Do You Remember?
DR11 -0.25 dB -16.17 dB 2:26 09-Girls On The Beach
DR11 -0.31 dB -15.64 dB 1:56 10-Drive-In
DR15 -3.76 dB -24.65 dB 2:00 11-Our Favorite Recording Sessions
DR12 -0.45 dB -16.15 dB 1:46 12-Don't Back Down
--

Number of tracks: 12
Official DR value: DR12

Samplerate: 44100 Hz
Channels: 2
Bits per sample: 16
Bitrate: 826 kbps
Codec: FLAC

[CUETools log; Date: 09.01.2015 19:19:24; Version: 2.1.4]
[CTDB TOCID: mJS0KTNN_dtyEtGsFbih.ZQdNVg-] disk not present in database.
[AccurateRip ID: 000bed17-006e93f8-8e060c0c] disk not present in database.

Track Peak [ CRC32 ] [W/O NULL] [ LOG ]
-- 97,1 [26B4AAD2] CA1D17D CRC32
01 71,6 [9900D0C4] [F57CD61F]
02 71,4 [919B318B] [2A1D41F1]
03 67,7 [098A7BF8] [8F2A66D7]
04 84,8 [0A9D0DCB] [A91A64E2]
05 67,7 [6BD0C145] [7E673D2B]
06 75,6 [02F03394] [495B4E6E]
07 86,8 [3E5F0A68] [D854C818]
08 87,4 [4CB611A9] [E945DB80]
09 97,1 [7D35EE5C] [92E62C1F]
10 96,4 [3FB1A3E9] [A6F4156F]
11 64,8 [5AA3D82C] [A27899A1]
12 94,9 [A021584F] [22F23F74]

http://i64.fastpic.ru/big/2015/0112/74/717d5e064d8e5bb22c1185c223e58074.jpg

All thanks go to ALLexxess
DOWNLOAD LINKS:
Buy Premium From My Links To Get Resumable Support,Max Speed & Support Me


Links are Interchangeable - No Password - Single Extraction
[related-news][/related-news]
Dear visitor, you are browsing our website as Guest.
We strongly recommend you to register and login to view hidden contents.

Comments:

Add Comments
 

This site doesn't store any files on its server. We only index and link to content provided by other sites.