2013Zone For Latest Downloads

 
     
 
Legal Downloads » TV Shows » BBC - The Inca: Masters of the Clouds (2015)
Menu
Home Applications
Games Movies
Music TV Shows
Torrents Graphics

Sitemap

RSS
 
Advanced Search
Last News
Site Info
Top Contributors:
  1    supper88 32766
  2    admin 32725
  3    Whisky 10080
  4    Shark_ 8911
  5    creativelivenew 8706
  6    whathesupa 2799
  7    candymypost 840
  8    hvnteam 629
  9    vuong87 3


Articles:
  This Hour: 0
  Today: 0
  This Month: 2
  All Time: 515495


Torrents:
  Today: 0
  Yesterday: 0
  All Time: 156680


Membership:
  Registered Today :0
  This Hour:0
  This Month:0
  Total:14
  Banned:1

{online}
{inform_torrent}
Friend:
Full Download Scripts
Torrent Download
Trend
Trend

Search In Site

TV Shows : BBC - The Inca: Masters of the Clouds (2015)
 

http://i57.fastpic.ru/big/2015/0122/b7/90b9993fa050c2419a6b92d1799b48b7.jpg
BBC - The Inca: Masters of the Clouds (2015)
HDTV | 1280x720 | .MP4/AVC @ 3062 Kbps | 2x~58min | Audio: English AAC 115 kbps, 2 channels | Subs: English | 2.59 GiB
Genre: Documentary

"Dr Jago Cooper travels through Peru and Ecuador to reassess the origins, accomplishments and nature of one of the greatest empires the world has ever seen."

Part 1: Foundations
In the first of a two-part series, Dr Jago Cooper reassesses the achievements of the Inca Empire. He begins in Peru, where evidence is still being uncovered that challenges preconceptions about its origins and significance. Venturing from the coast to the clouds, he reveals how the Inca transformed one of the most challenging landscapes in the world to ward off the worst effects of the climate, and created sophisticated systems of communication. He shows how one of many independent societies became a commanding empire - not through force, but by using subtle methods of persuasion.

Part 2: Clash of Empires
In the concluding part, Dr Jago Cooper argues that it wasn't simply a clash of arms that destroyed the Inca, but a clash of world views. He travels from Peru to the far north of Inca territory in Ecuador to reveal how the great strengths of the empire suddenly became factors in its rapid demise. The Spanish conquest of the Inca destroyed one of the most remarkable empires in the world, yet the Inca legacy leaves a great deal for modern civilisations to learn from.

General
Complete name : BBC.The.Inca.Masters.Of.The.Clouds.1of2.Foundations.mp4
Format : MPEG-4
Format profile : Base Media
Codec ID : isom
File size : 1.31 GiB
Duration : 58mn 46s
Overall bit rate mode : Variable
Overall bit rate : 3 180 Kbps

Video
ID : 1
Format : AVC
Format/Info : Advanced Video Codec
Format profile : [email protected]
Format settings, CABAC : No
Format settings, ReFrames : 1 frame
Format settings, GOP : M=1, N=12
Codec ID : avc1
Codec ID/Info : Advanced Video Coding
Duration : 58mn 46s
Bit rate : 3 062 Kbps
Maximum bit rate : 10.8 Mbps
Width : 1 280 pixels
Height : 720 pixels
Display aspect ratio : 16:9
Frame rate mode : Constant
Frame rate : 25.000 fps
Color space : YUV
Chroma subsampling : 4:2:0
Bit depth : 8 bits
Scan type : Progressive
Bits/(Pixel*Frame) : 0.133
Stream size : 1.26 GiB (96%)

Audio
ID : 2
Format : AAC
Format/Info : Advanced Audio Codec
Format profile : LC
Codec ID : 40
Duration : 58mn 46s
Bit rate mode : Variable
Bit rate : 115 Kbps
Maximum bit rate : 216 Kbps
Channel(s) : 2 channels
Channel positions : Front: L R
Sampling rate : 48.0 KHz
Compression mode : Lossy
Stream size : 48.3 MiB (4%)
Language : English
Encoded date : UTC 2015-01-16 21:38:37
Tagged date : UTC 2015-01-16 21:38:42

Text
ID : 3
Format : Timed text
Codec ID : tx3g
Duration : 58mn 18s
Bit rate mode : Variable
Bit rate : 101 bps
Stream size : 42.9 KiB (0%)
Encoded date : UTC 2015-01-16 21:38:42
Tagged date : UTC 2015-01-16 21:38:42

Screenshots:

http://i63.fastpic.ru/big/2015/0122/6c/a97a0f6ef75745157310840de1dde56c.jpg

http://i59.fastpic.ru/big/2015/0122/e2/b65756f78ff3cf4af7ac404a45f378e2.jpg

http://i57.fastpic.ru/big/2015/0122/86/82dcc23be36e24fcbcbeaf30b1db4986.jpg

http://i64.fastpic.ru/big/2015/0122/c8/0609a1ee7868b22e280231a7a142a7c8.jpg


DOWNLOAD LINKS:
Buy Premium From My Links To Get Resumable Support,Max Speed & Support Me


Links are Interchangeable - No Password - Single Extraction

BBC - The Inca: Masters of the Clouds (2015) Fast Download



 
 
 
Dear visitor, you went to the site as an unregistered user. We encourage you to register or enter the site under your name.
 
   
 
 (Votes #: 0)