2013Zone For Latest Downloads

 
     
 
Legal Downloads » Music » Frank Zappa - Make A Jazz Noise Here (1991) [2CD] {1995 Ryko Remaster Complete Series}
Menu
Home Applications
Games Movies
Music TV Shows
Torrents Graphics

Sitemap

RSS
 
Advanced Search
Last News
Site Info
Top Contributors:
  1    supper88 32766
  2    admin 32732
  3    Whisky 10080
  4    Shark_ 8911
  5    creativelivenew 8706
  6    whathesupa 2799
  7    candymypost 840
  8    hvnteam 629
  9    vuong87 3


Articles:
  This Hour: 0
  Today: 0
  This Month: 33
  All Time: 515483


Torrents:
  Today: 0
  Yesterday: 0
  All Time: 156685


Membership:
  Registered Today :0
  This Hour:0
  This Month:0
  Total:14
  Banned:1

{online}
{inform_torrent}
Friend:
Full Download Scripts
Torrent Download
Trend
Trend

Search In Site

Music : Frank Zappa - Make A Jazz Noise Here (1991) [2CD] {1995 Ryko Remaster Complete Series}
 

http://i59.fastpic.ru/big/2015/0122/c4/bce7e4371751353bd50c5abe1ddeebc4.jpg
Frank Zappa - Make A Jazz Noise Here (1991) [2CD] {1995 Ryko Remaster Complete Series}
EAC rip (secure mode) | FLAC (tracks)+CUE+LOG -> 924 Mb | MP3 @320 -> 326 Mb
Full Artwork @ 600 dpi (png) -> 250 Mb | 5% repair rar | Ryko Zappa catalog
© 1995 Rykodisc / The Zappa Family Trust | RCD 10555/56
Rock / Experimental Rock / Jazz Rock / Art Rock

"Official Release #57. The third and final live album put together from recordings of Frank Zappa's 1988 concerts, the two-CD set Make a Jazz Noise Here focuses on the composer's instrumental pieces -- which are not necessarily jazzy, by the way. As for the three vocal tracks included ("Stinkfoot," "Stevie's Spanking," and "Advance Romance"), they all feature interesting solos. The set presents old favorites, like the medley "Let's Make the Water Turn Black"/"Harry, You're a Beast," "King Kong," and "The Black Page." They are well-performed, but considering the number of versions of each of them available on other recordings, they hardly constitute the main interest of this album."

http://i60.fastpic.ru/big/2015/0122/15/105c59e61b0132d621ebb8fd71101715.jpg


Personnel:
Frank Zappa - vocal, guitar, synthesizers
Ike Willis, Mike Keneally - guitar, synthesizers, vocal
Kurt McGettrick - contrabass clarinet, baritone saxophone
Paul Carman - soprano, alto & baritone saxophones
Albert Wing - tenor saxophone
Walt Fowler - trumpet, flugelhorn
Bruce Fowler - trombone
Bobby Martin - keyboards, vocal
Scott Thunes - Mini-Moog synthesizer, bass
Ed Mann - vibraphone, marimba, percussion
Chad Wackerman - drums, percussion

tracklist:
CD1

01 - Stinkfoot
02 - When Yuppies Go To Hell
03 - Fire And Chains
04 - Let's Make The Water Turn Black
05 - Harry, You're A Beast
06 - The Orange County Lumber Truck
07 - Oh No
08 - Theme From Lumpy Gravy
09 - Eat That Question
10 - Black Napkins
11 - Big Swifty
12 - King Kong
13 - Star Wars Won't Work

CD2
01 - The Black Page (new age version)
02 - T'Mershi Duweeen
03 - Dupree's Paradise
04 - City Of Tiny Lights
05 - Royal March From ''L'Historie Du Soldat''
06 - Theme From The Bartok Piano Concerto #3
07 - Sinister Footwear (2nd movement)
08 - Stevie's Spanking
09 - Alien Orifice
10 - Cruisin' For Burgers
11 - Advance Romance
12 - Strictly Genteel

Exact Audio Copy V1.0 beta 3 from 29. August 2011

EAC extraction logfile from 17. January 2015, 18:24

Frank Zappa / Make A Jazz Noise Here (CD1)

Used drive : TSSTcorpCDDVDW SE-208DB Adapter: 7 ID: 0

Read mode : Secure
Utilize accurate stream : Yes
Defeat audio cache : Yes
Make use of C2 pointers : No

Read offset correction : 6
Overread into Lead-In and Lead-Out : No
Fill up missing offset samples with silence : Yes
Delete leading and trailing silent blocks : No
Null samples used in CRC calculations : Yes
Used interface : Native Win32 interface for Win NT & 2000
Gap handling : Appended to previous track

Used output format : User Defined Encoder
Selected bitrate : 1024 kBit/s
Quality : High
Add ID3 tag : No
Command line compressor : C:\Program Files (x86)\FLAC Frontend\tools\flac.exe
Additional command line options : -8 -V -T "ARTIST=%artist%" -T "TITLE=%title%" -T "ALBUM=%albumtitle%" -T "DATE=%year%" -T "TRACKNUMBER=%tracknr%" -T "TOTALTRACKS=%numtracks%" -T "GENRE=%genre%" -T "ALBUMARTIST=%albumartist%" -T "ALBUM ARTIST=%albumartist%" -T "COMMENT=EAC Secure Mode, Test & Copy, AccurateRip, FLAC -8" %source%

TOC of the extracted CD Track | Start | Length | Start sector | End sector
-----------
1 | 0:00.32 | 7:39.65 | 32 | 34521
2 | 7:40.22 | 13:28.58 | 34522 | 95179
3 | 21:09.05 | 5:04.20 | 95180 | 117999
4 | 26:13.25 | 1:36.30 | 118000 | 125229
5 | 27:49.55 | 0:47.60 | 125230 | 128814
6 | 28:37.40 | 0:41.50 | 128815 | 131939
7 | 29:19.15 | 4:43.62 | 131940 | 153226
8 | 34:03.02 | 1:11.43 | 153227 | 158594
9 | 35:14.45 | 1:54.65 | 158595 | 167209
10 | 37:09.35 | 6:56.42 | 167210 | 198451
11 | 44:06.02 | 11:12.10 | 198452 | 248861
12 | 55:18.12 | 13:04.18 | 248862 | 307679
13 | 68:22.30 | 3:40.57 | 307680 | 324236

Track 1 Filename C:\Frank Zappa - Make A Jazz Noise Here (1991) [2CD] {1995 Ryko Remaster Complete Series}\CD1\01 - Stinkfoot.wav Pre-gap length 0:00:02.32 Peak level 90.1 %
Extraction speed 3.2 X
Track quality 100.0 %
Test CRC C2B7CEB7
Copy CRC C2B7CEB7
Accurately ripped (confidence 18) [D4A9645B] (AR v2)
Copy OK

Track 2 Filename C:\Frank Zappa - Make A Jazz Noise Here (1991) [2CD] {1995 Ryko Remaster Complete Series}\CD1\02 - When Yuppies Go To Hell.wav Peak level 98.6 %
Extraction speed 3.8 X
Track quality 99.9 %
Test CRC 8B4DEE24
Copy CRC 8B4DEE24
Accurately ripped (confidence 18) [2DDEBEC1] (AR v2)
Copy OK

Track 3 Filename C:\Frank Zappa - Make A Jazz Noise Here (1991) [2CD] {1995 Ryko Remaster Complete Series}\CD1\03 - Fire And Chains.wav Peak level 99.9 %
Extraction speed 4.3 X
Track quality 100.0 %
Test CRC 90185668
Copy CRC 90185668
Accurately ripped (confidence 19) [9EF87A36] (AR v2)
Copy OK

Track 4 Filename C:\Frank Zappa - Make A Jazz Noise Here (1991) [2CD] {1995 Ryko Remaster Complete Series}\CD1\04 - Let's Make The Water Turn Black.wav Peak level 99.0 %
Extraction speed 3.6 X
Track quality 100.0 %
Test CRC B38DF686
Copy CRC B38DF686
Accurately ripped (confidence 18) [46682292] (AR v2)
Copy OK

Track 5 Filename C:\Frank Zappa - Make A Jazz Noise Here (1991) [2CD] {1995 Ryko Remaster Complete Series}\CD1\05 - Harry, You're A Beast.wav Peak level 94.3 %
Extraction speed 1.5 X
Track quality 99.7 %
Test CRC 5BBFA183
Copy CRC 5BBFA183
Accurately ripped (confidence 18) [E7530034] (AR v2)
Copy OK

Track 6 Filename C:\Frank Zappa - Make A Jazz Noise Here (1991) [2CD] {1995 Ryko Remaster Complete Series}\CD1\06 - The Orange County Lumber Truck.wav Peak level 83.1 %
Extraction speed 2.6 X
Track quality 100.0 %
Test CRC 5B8A47DD
Copy CRC 5B8A47DD
Accurately ripped (confidence 18) [2BE3F58F] (AR v2)
Copy OK

Track 7 Filename C:\Frank Zappa - Make A Jazz Noise Here (1991) [2CD] {1995 Ryko Remaster Complete Series}\CD1\07 - Oh No.wav Peak level 100.0 %
Extraction speed 3.8 X
Track quality 99.9 %
Test CRC F8C44EBA
Copy CRC F8C44EBA
Accurately ripped (confidence 18) [83047F87] (AR v2)
Copy OK

Track 8 Filename C:\Frank Zappa - Make A Jazz Noise Here (1991) [2CD] {1995 Ryko Remaster Complete Series}\CD1\08 - Theme From Lumpy Gravy.wav Peak level 95.1 %
Extraction speed 3.5 X
Track quality 100.0 %
Test CRC A347804B
Copy CRC A347804B
Accurately ripped (confidence 18) [16655E78] (AR v2)
Copy OK

Track 9 Filename C:\Frank Zappa - Make A Jazz Noise Here (1991) [2CD] {1995 Ryko Remaster Complete Series}\CD1\09 - Eat That Question.wav Peak level 100.0 %
Extraction speed 2.8 X
Track quality 99.9 %
Test CRC 929DCCCF
Copy CRC 929DCCCF
Accurately ripped (confidence 18) [CB29DE3E] (AR v2)
Copy OK

Track 10 Filename C:\Frank Zappa - Make A Jazz Noise Here (1991) [2CD] {1995 Ryko Remaster Complete Series}\CD1\10 - Black Napkins.wav Peak level 95.5 %
Extraction speed 4.8 X
Track quality 100.0 %
Test CRC 98F3F941
Copy CRC 98F3F941
Accurately ripped (confidence 18) [4031A9BD] (AR v2)
Copy OK

Track 11 Filename C:\Frank Zappa - Make A Jazz Noise Here (1991) [2CD] {1995 Ryko Remaster Complete Series}\CD1\11 - Big Swifty.wav Peak level 100.0 %
Extraction speed 5.8 X
Track quality 100.0 %
Test CRC CCFF5640
Copy CRC CCFF5640
Accurately ripped (confidence 17) [5452BB64] (AR v2)
Copy OK

Track 12 Filename C:\Frank Zappa - Make A Jazz Noise Here (1991) [2CD] {1995 Ryko Remaster Complete Series}\CD1\12 - King Kong.wav Peak level 100.0 %
Extraction speed 6.3 X
Track quality 100.0 %
Test CRC 82757057
Copy CRC 82757057
Accurately ripped (confidence 17) [4A21A7ED] (AR v2)
Copy OK

Track 13 Filename C:\Frank Zappa - Make A Jazz Noise Here (1991) [2CD] {1995 Ryko Remaster Complete Series}\CD1\13 - Star Wars Won't Work.wav Peak level 97.7 %
Extraction speed 4.6 X
Track quality 99.9 %
Test CRC 4ACCE45E
Copy CRC 4ACCE45E
Accurately ripped (confidence 16) [6FB9D96D] (AR v2)
Copy OK

All tracks accurately ripped

No errors occurred

End of status report

==== Log checksum 519E5CE46E1A30FFBDEF1A54C2F86F152B04364AA699176D26AD3B8F86BA8D38 ====

Exact Audio Copy V1.0 beta 3 from 29. August 2011

EAC extraction logfile from 17. January 2015, 19:10

Frank Zappa / Make A Jazz Noise Here (CD2)

Used drive : TSSTcorpCDDVDW SE-208DB Adapter: 7 ID: 0

Read mode : Secure
Utilize accurate stream : Yes
Defeat audio cache : Yes
Make use of C2 pointers : No

Read offset correction : 6
Overread into Lead-In and Lead-Out : No
Fill up missing offset samples with silence : Yes
Delete leading and trailing silent blocks : No
Null samples used in CRC calculations : Yes
Used interface : Native Win32 interface for Win NT & 2000
Gap handling : Appended to previous track

Used output format : User Defined Encoder
Selected bitrate : 1024 kBit/s
Quality : High
Add ID3 tag : No
Command line compressor : C:\Program Files (x86)\FLAC Frontend\tools\flac.exe
Additional command line options : -8 -V -T "ARTIST=%artist%" -T "TITLE=%title%" -T "ALBUM=%albumtitle%" -T "DATE=%year%" -T "TRACKNUMBER=%tracknr%" -T "TOTALTRACKS=%numtracks%" -T "GENRE=%genre%" -T "ALBUMARTIST=%albumartist%" -T "ALBUM ARTIST=%albumartist%" -T "COMMENT=EAC Secure Mode, Test & Copy, AccurateRip, FLAC -8" %source%

TOC of the extracted CD Track | Start | Length | Start sector | End sector
-----------
1 | 0:00.32 | 6:45.73 | 32 | 30479
2 | 6:46.30 | 1:42.15 | 30480 | 38144
3 | 8:28.45 | 8:34.62 | 38145 | 76756
4 | 17:03.32 | 8:01.48 | 76757 | 112879
5 | 25:05.05 | 0:59.00 | 112880 | 117304
6 | 26:04.05 | 0:43.05 | 117305 | 120534
7 | 26:47.10 | 6:39.45 | 120535 | 150504
8 | 33:26.55 | 4:25.47 | 150505 | 170426
9 | 37:52.27 | 4:15.25 | 170427 | 189576
10 | 42:07.52 | 8:27.70 | 189577 | 227671
11 | 50:35.47 | 7:43.20 | 227672 | 262416
12 | 58:18.67 | 6:36.65 | 262417 | 292181

Track 1 Filename C:\Frank Zappa - Make A Jazz Noise Here (1991) [2CD] {1995 Ryko Remaster Complete Series}\CD2\01 - The Black Page (new age version).wav Pre-gap length 0:00:02.32 Peak level 90.6 %
Extraction speed 2.8 X
Track quality 100.0 %
Test CRC 4CA982DC
Copy CRC 4CA982DC
Accurately ripped (confidence 19) [3594316C] (AR v2)
Copy OK

Track 2 Filename C:\Frank Zappa - Make A Jazz Noise Here (1991) [2CD] {1995 Ryko Remaster Complete Series}\CD2\02 - T'Mershi Duweeen.wav Peak level 87.8 %
Extraction speed 2.4 X
Track quality 100.0 %
Test CRC 1ED22B52
Copy CRC 1ED22B52
Accurately ripped (confidence 19) [475719D3] (AR v2)
Copy OK

Track 3 Filename C:\Frank Zappa - Make A Jazz Noise Here (1991) [2CD] {1995 Ryko Remaster Complete Series}\CD2\03 - Dupree's Paradise.wav Peak level 89.9 %
Extraction speed 3.5 X
Track quality 100.0 %
Test CRC 12B7E6FD
Copy CRC 12B7E6FD
Accurately ripped (confidence 19) [C8989726] (AR v2)
Copy OK

Track 4 Filename C:\Frank Zappa - Make A Jazz Noise Here (1991) [2CD] {1995 Ryko Remaster Complete Series}\CD2\04 - City Of Tiny Lights.wav Peak level 84.3 %
Extraction speed 4.0 X
Track quality 100.0 %
Test CRC 98DFED98
Copy CRC 98DFED98
Accurately ripped (confidence 19) [0CE217AC] (AR v2)
Copy OK

Track 5 Filename C:\Frank Zappa - Make A Jazz Noise Here (1991) [2CD] {1995 Ryko Remaster Complete Series}\CD2\05 - Royal March From ''L'Historie Du Soldat''.wav Peak level 92.3 %
Extraction speed 2.7 X
Track quality 100.0 %
Test CRC 52A44D74
Copy CRC 52A44D74
Accurately ripped (confidence 19) [50D64260] (AR v2)
Copy OK

Track 6 Filename C:\Frank Zappa - Make A Jazz Noise Here (1991) [2CD] {1995 Ryko Remaster Complete Series}\CD2\06 - Theme From The Bartok Piano Concerto #3.wav Peak level 85.3 %
Extraction speed 2.4 X
Track quality 100.0 %
Test CRC BE959E2B
Copy CRC BE959E2B
Accurately ripped (confidence 19) [D0606004] (AR v2)
Copy OK

Track 7 Filename C:\Frank Zappa - Make A Jazz Noise Here (1991) [2CD] {1995 Ryko Remaster Complete Series}\CD2\07 - Sinister Footwear (2nd movement).wav Peak level 95.0 %
Extraction speed 4.3 X
Track quality 100.0 %
Test CRC C360B9F7
Copy CRC C360B9F7
Accurately ripped (confidence 19) [6204F3EF] (AR v2)
Copy OK

Track 8 Filename C:\Frank Zappa - Make A Jazz Noise Here (1991) [2CD] {1995 Ryko Remaster Complete Series}\CD2\08 - Stevie's Spanking.wav Peak level 100.0 %
Extraction speed 4.4 X
Track quality 100.0 %
Test CRC 694FB44F
Copy CRC 694FB44F
Accurately ripped (confidence 19) [2D786D8F] (AR v2)
Copy OK

Track 9 Filename C:\Frank Zappa - Make A Jazz Noise Here (1991) [2CD] {1995 Ryko Remaster Complete Series}\CD2\09 - Alien Orifice.wav Peak level 95.2 %
Extraction speed 4.5 X
Track quality 100.0 %
Test CRC D8CA295D
Copy CRC D8CA295D
Accurately ripped (confidence 19) [CB98FD69] (AR v2)
Copy OK

Track 10 Filename C:\Frank Zappa - Make A Jazz Noise Here (1991) [2CD] {1995 Ryko Remaster Complete Series}\CD2\10 - Cruisin' For Burgers.wav Peak level 100.0 %
Extraction speed 4.6 X
Track quality 99.9 %
Test CRC 0676B25C
Copy CRC 0676B25C
Accurately ripped (confidence 19) [9D8E3E52] (AR v2)
Copy OK

Track 11 Filename C:\Frank Zappa - Make A Jazz Noise Here (1991) [2CD] {1995 Ryko Remaster Complete Series}\CD2\11 - Advance Romance.wav Peak level 100.0 %
Extraction speed 5.4 X
Track quality 100.0 %
Test CRC 78DD5825
Copy CRC 78DD5825
Accurately ripped (confidence 19) 618FCCE (AR v2)
Copy OK

Track 12 Filename C:\Frank Zappa - Make A Jazz Noise Here (1991) [2CD] {1995 Ryko Remaster Complete Series}\CD2\12 - Strictly Genteel.wav Peak level 92.1 %
Extraction speed 5.6 X
Track quality 100.0 %
Test CRC CCA55B85
Copy CRC CCA55B85
Accurately ripped (confidence 18) [FB938687] (AR v2)
Copy OK

All tracks accurately ripped

No errors occurred

End of status report

==== Log checksum AC1359EB6064CE29033D8C7BBEBF72E70EDEE590BD76AF3A64B33891956B34AE ====

http://i64.fastpic.ru/big/2015/0122/83/34392c56b566c9d1fabc99246185f283.jpg

http://i58.fastpic.ru/big/2015/0122/fc/ccc82711808fdbc494e1171f90a254fc.jpg

DOWNLOAD LINKS:
Buy Premium From My Links To Get Resumable Support,Max Speed & Support Me

http://uploaded.net/img/public/234x60.jpg
pnhdm.zappa.catalog.part1.rar
pnhdm.zappa.catalog.part2.rar
pnhdm.zappajazznoiserykoARTWORK.part1.rar
pnhdm.zappajazznoiserykoARTWORK.part2.rar
pnhdm.zappajazznoiserykocd1.part1.rar
pnhdm.zappajazznoiserykocd1.part2.rar
pnhdm.zappajazznoiserykocd1.part3.rar
pnhdm.zappajazznoiserykocd1MP.rar
pnhdm.zappajazznoiserykocd2.part1.rar
pnhdm.zappajazznoiserykocd2.part2.rar
pnhdm.zappajazznoiserykocd2.part3.rar
pnhdm.zappajazznoiserykocd2MP.rar

http://i.imgur.com/UNMP0OS.gif
pnhdm.zappa.catalog.part1.rar.html
pnhdm.zappa.catalog.part2.rar.html
pnhdm.zappajazznoiserykoARTWORK.part1.rar.html
pnhdm.zappajazznoiserykoARTWORK.part2.rar.html
pnhdm.zappajazznoiserykocd1.part1.rar.html
pnhdm.zappajazznoiserykocd1.part2.rar.html
pnhdm.zappajazznoiserykocd1.part3.rar.html
pnhdm.zappajazznoiserykocd1MP.rar.html
pnhdm.zappajazznoiserykocd2.part1.rar.html
pnhdm.zappajazznoiserykocd2.part2.rar.html
pnhdm.zappajazznoiserykocd2.part3.rar.html
pnhdm.zappajazznoiserykocd2MP.rar.html

http://i.imgur.com/FTRVfCa.jpg
pnhdm.zappa.catalog.part1.rar
pnhdm.zappa.catalog.part2.rar
pnhdm.zappajazznoiserykoARTWORK.part1.rar
pnhdm.zappajazznoiserykoARTWORK.part2.rar
pnhdm.zappajazznoiserykocd1.part1.rar
pnhdm.zappajazznoiserykocd1.part2.rar
pnhdm.zappajazznoiserykocd1.part3.rar
pnhdm.zappajazznoiserykocd1MP.rar
pnhdm.zappajazznoiserykocd2.part1.rar
pnhdm.zappajazznoiserykocd2.part2.rar
pnhdm.zappajazznoiserykocd2.part3.rar
pnhdm.zappajazznoiserykocd2MP.rar

http://i.imgur.com/NbvsRsP.png
pnhdm.zappa.catalog.part1.rar.html
pnhdm.zappa.catalog.part2.rar.html
pnhdm.zappajazznoiserykoARTWORK.part1.rar.html
pnhdm.zappajazznoiserykoARTWORK.part2.rar.html
pnhdm.zappajazznoiserykocd1.part1.rar.html
pnhdm.zappajazznoiserykocd1.part2.rar.html
pnhdm.zappajazznoiserykocd1.part3.rar.html
pnhdm.zappajazznoiserykocd1MP.rar.html
pnhdm.zappajazznoiserykocd2.part1.rar.html
pnhdm.zappajazznoiserykocd2.part2.rar.html
pnhdm.zappajazznoiserykocd2.part3.rar.html
pnhdm.zappajazznoiserykocd2MP.rar.html

Links are Interchangeable - No Password - Single Extraction

Frank Zappa - Make A Jazz Noise Here (1991) [2CD] {1995 Ryko Remaster Complete Series} Fast Download



 
 
 
Dear visitor, you went to the site as an unregistered user. We encourage you to register or enter the site under your name.
 
   
 
 (Votes #: 0)