2013Zone For Latest Downloads

 
     
 
Legal Downloads » TV Shows » PBS - NATURE: Animal Misfits (2014)
Menu
Home Applications
Games Movies
Music TV Shows
Torrents Graphics

Sitemap

RSS
 
Advanced Search
Last News
Site Info
Top Contributors:
  1    supper88 32766
  2    admin 32725
  3    Whisky 10080
  4    Shark_ 8911
  5    creativelivenew 8706
  6    whathesupa 2799
  7    candymypost 840
  8    hvnteam 629
  9    vuong87 3


Articles:
  This Hour: 0
  Today: 0
  This Month: 0
  All Time: 515494


Torrents:
  Today: 0
  Yesterday: 0
  All Time: 156680


Membership:
  Registered Today :0
  This Hour:0
  This Month:0
  Total:14
  Banned:1

{online}
{inform_torrent}
Friend:
Full Download Scripts
Torrent Download
Trend
Trend

Search In Site

TV Shows : PBS - NATURE: Animal Misfits (2014)
 

http://i64.fastpic.ru/big/2015/0122/31/7a742443d02c1771e18d1628eaede531.jpg
PBS - NATURE: Animal Misfits (2014)
HDTV | 1280x720 | .MKV/AVC @ 2882 Kbps | 52mn 56s | Audio: English AC3 384 kbps, 6 channels | Subs: None | 1.23 GiB
Genre: Documentary

"Life on earth is incredibly diverse, but it's not always what you might expect. Alongside the fastest, strongest, smartest animals are nature's misfits. These odd, bizarre and unlikely creatures at first glance seem-ill equipped for survival. Left at the starting line in the race for life, these are the apparent losers in the story of evolution, yet somehow they still manage to cling to life and in some cases even thrive. Animal Misfits reveals some surprising details about how evolution really works, demonstrating that all animals are remarkably well-adapted to their chosen way of life."

General
Unique ID : 252837997876189598849196953917844938503 (0xBE36D3BE0FE39F68873B77269FA8DF07)
Complete name : nature.animal.misfits.mkv
Format : Matroska
Format version : Version 4 / Version 2
File size : 1.23 GiB
Duration : 52mn 56s
Overall bit rate : 3 332 Kbps

Video
ID : 1
Format : AVC
Format/Info : Advanced Video Codec
Format profile : [email protected]
Format settings, CABAC : Yes
Format settings, ReFrames : 5 frames
Codec ID : V_MPEG4/ISO/AVC
Duration : 52mn 56s
Bit rate : 2 882 Kbps
Width : 1 280 pixels
Height : 720 pixels
Display aspect ratio : 16:9
Frame rate : 25.000 fps
Color space : YUV
Chroma subsampling : 4:2:0
Bit depth : 8 bits
Scan type : Progressive
Bits/(Pixel*Frame) : 0.125
Stream size : 1.07 GiB (86%)
Writing library : x264 core 144 r2525 40bb568
Encoding settings : cabac=1 / ref=5 / deblock=1:0:0 / analyse=0x3:0x113 / me=umh / subme=8 / psy=1 / psy_rd=1.00:0.00 / mixed_ref=1 / me_range=16 / chroma_me=1 / trellis=1 / 8x8dct=1 / cqm=0 / deadzone=21,11 / fast_pskip=1 / chroma_qp_offset=-2 / threads=12 / lookahead_threads=2 / sliced_threads=0 / nr=0 / decimate=1 / interlaced=0 / bluray_compat=0 / constrained_intra=0 / bframes=3 / b_pyramid=2 / b_adapt=2 / b_bias=0 / direct=3 / weightb=1 / open_gop=0 / weightp=2 / keyint=250 / keyint_min=25 / scenecut=40 / intra_refresh=0 / rc_lookahead=50 / rc=crf / mbtree=1 / crf=21.0 / qcomp=0.60 / qpmin=0 / qpmax=69 / qpstep=4 / ip_ratio=1.40 / aq=1:1.00
Language : English
Default : Yes
Forced : No

Audio
ID : 2
Format : AC-3
Format/Info : Audio Coding 3
Mode extension : CM (complete main)
Format settings, Endianness : Big
Codec ID : A_AC3
Duration : 52mn 56s
Bit rate mode : Constant
Bit rate : 384 Kbps
Channel(s) : 6 channels
Channel positions : Front: L C R, Side: L R, LFE
Sampling rate : 48.0 KHz
Bit depth : 16 bits
Compression mode : Lossy
Stream size : 145 MiB (12%)
Language : English
Default : Yes
Forced : No

Text
ID : 3
Format : UTF-8
Codec ID : S_TEXT/UTF8
Codec ID/Info : UTF-8 Plain Text
Language : English
Default : No
Forced : No

Screenshots:

http://i59.fastpic.ru/big/2015/0122/e0/476973ff1a0ccbe04df4988cd9cb74e0.jpg

http://i64.fastpic.ru/big/2015/0122/16/ab17500b4aacde491d42778b3151a116.jpg

http://i63.fastpic.ru/big/2015/0122/0c/6f898f356399fdf2ba81a8dcec0ad40c.jpg


DOWNLOAD LINKS:
Buy Premium From My Links To Get Resumable Support,Max Speed & Support Me


Links are Interchangeable - No Password - Single Extraction

PBS - NATURE: Animal Misfits (2014) Fast Download



 
 
 
Dear visitor, you went to the site as an unregistered user. We encourage you to register or enter the site under your name.
 
   
 
 (Votes #: 0)