2013Zone For Latest Downloads

 
     
 
Legal Downloads » TV Shows » ITV: Exposure: Britains Secret Slaves (2015)
Menu
Home Applications
Games Movies
Music TV Shows
Torrents Graphics

Sitemap

RSS
 
Advanced Search
Last News
Site Info
Top Contributors:
  1    supper88 32766
  2    admin 32693
  3    Whisky 10080
  4    Shark_ 8911
  5    creativelivenew 8706
  6    whathesupa 2799
  7    candymypost 840
  8    hvnteam 629
  9    vuong87 3


Articles:
  This Hour: 0
  Today: 0
  This Month: 10
  All Time: 515561


Torrents:
  Today: 0
  Yesterday: 0
  All Time: 156684


Membership:
  Registered Today :0
  This Hour:0
  This Month:0
  Total:14
  Banned:1

{online}
{inform_torrent}
Friend:
We Recomend
Trend
Trend
Ad1

Search In Site

TV Shows : ITV: Exposure: Britains Secret Slaves (2015)
 

http://i67.fastpic.ru/big/2015/0128/15/682341910e693a775bafbc56542ea015.jpg
ITV: Exposure: Britains Secret Slaves (2015)
HDTV | 1280x720 | .MP4/AVC @ 2987 Kbps | 46mn 41s | Audio: English AAC 160 kbps, 2 channels | Subs: None | 1.03 GiB
Genre: Documentary

""It was like a hell. She treat me as a slave. Not like a human being, I was treated like an animal. It was hard. But I stayed for my son." - Elizabeth, domestic worker. Exposure delves into the world of modern slavery - and finds it alive and well in some of London's most exclusive streets. Featuring testimony from women who are forced to work up to 18 hours a day, seven days a week for as little as 50 pence an hour, this programme provides a close insight into the conditions of domestic workers brought into the country by their wealthy foreign employers. Reporter Julie Etchingham finds that many of the women report physical and psychological abuse, despite the fact they are meant to be protected by British law while working here. Because of recent changes in visa laws, the women have no legal status if they leave the families who employ them. The programme discovers how those who escape from abusive employers are exploited by criminals who draw them into a murky underworld of fake passports, false visas, and illegal employment."

General
Complete name : Exposure.2015.Britains.Secret.Slaves.mp4
Format : MPEG-4
Format profile : Base Media
Codec ID : isom
File size : 1.03 GiB
Duration : 46mn 41s
Overall bit rate mode : Variable
Overall bit rate : 3 152 Kbps

Video
ID : 1
Format : AVC
Format/Info : Advanced Video Codec
Format profile : [email protected]
Format settings, CABAC : No
Format settings, ReFrames : 1 frame
Format settings, GOP : M=1, N=12
Codec ID : avc1
Codec ID/Info : Advanced Video Coding
Duration : 46mn 41s
Bit rate : 2 987 Kbps
Width : 1 280 pixels
Height : 720 pixels
Display aspect ratio : 16:9
Frame rate mode : Constant
Frame rate : 25.000 fps
Color space : YUV
Chroma subsampling : 4:2:0
Bit depth : 8 bits
Scan type : Progressive
Bits/(Pixel*Frame) : 0.130
Stream size : 998 MiB (95%)
Encoded date : UTC 2015-01-21 15:33:55
Tagged date : UTC 2015-01-21 15:33:55

Audio
ID : 2
Format : AAC
Format/Info : Advanced Audio Codec
Format profile : LC
Codec ID : 40
Duration : 46mn 41s
Bit rate mode : Variable
Bit rate : 160 Kbps
Channel(s) : 2 channels
Channel positions : Front: L R
Sampling rate : 48.0 KHz
Compression mode : Lossy
Stream size : 53.4 MiB (5%)
Language : English
Encoded date : UTC 2015-01-21 15:33:55
Tagged date : UTC 2015-01-21 15:33:55

Screenshots:

http://i63.fastpic.ru/big/2015/0128/6f/cfa0dad40157612526abdaff0d19546f.jpg

http://i60.fastpic.ru/big/2015/0128/c3/b5e2f390d6a27046140091b54252d6c3.jpg

http://i66.fastpic.ru/big/2015/0128/77/9f794bcff2dc2728895db17096149d77.jpg

http://i67.fastpic.ru/big/2015/0128/f1/e3733b5a807f61c8d1357821284eabf1.jpg


DOWNLOAD LINKS:
Buy Premium To Support Me & Get Resumable Support & Max Speed


Links are Interchangeable - No Password - Single Extraction

ITV: Exposure: Britains Secret Slaves (2015) Fast Download


Ad2

 
 
 
Dear visitor, you went to the site as an unregistered user. We encourage you to register or enter the site under your name.
 
   
 
 (Votes #: 0)