2013Zone For Latest Downloads

 
     
 
Legal Downloads » Music » Spooky Tooth - Spooky Two (1969) [2010, Universal Music, UICY-20033]
Menu
Home Applications
Games Movies
Music TV Shows
Torrents Graphics

Sitemap

RSS
 
Advanced Search
Last News
Site Info
Top Contributors:
  1    supper88 32766
  2    admin 32693
  3    Whisky 10080
  4    Shark_ 8911
  5    creativelivenew 8706
  6    whathesupa 2799
  7    candymypost 840
  8    hvnteam 629
  9    vuong87 3


Articles:
  This Hour: 0
  Today: 0
  This Month: 0
  All Time: 515561


Torrents:
  Today: 0
  Yesterday: 0
  All Time: 156684


Membership:
  Registered Today :0
  This Hour:0
  This Month:0
  Total:14
  Banned:1

{online}
{inform_torrent}
Friend:
We Recomend
Trend
Trend
Ad1

Search In Site

Music : Spooky Tooth - Spooky Two (1969) [2010, Universal Music, UICY-20033]
 
http://i58.fastpic.ru/big/2015/0128/0a/df86351ec9f3cbd99a4e74714b0b2d0a.jpg

Spooky Tooth - Spooky Two (1969)
EAC | Flac(Image) + Cue + Log & MP3 CBR 320Kbps
Universal Music, UICY-20033 | ~ 398 or 167 Mb | Scans Included
Psychedelic Rock / Classic Rock / Prog Rock

"Spooky Two is this British blues-rock band's pièce de résistance. All eight of the tracks compound free-styled rock and loose-fitting guitar playing, resulting in some fantastic raw music. With Gary Wright on keyboards and vocals and lead singer Mike Harrison behind the microphone, their smooth, relaxed tempos and riffs mirrored bands like Savoy Brown and, at times, even the Yardbirds..."

Spooky Tooth - Spooky Two (1969):

http://i64.fastpic.ru/big/2015/0128/84/95b08e5a40597858392a23d9d9542f84.jpg

Tracklist:

1 Waitin' For The Wind
2 Feelin' Bad
3 I've Got Enough Heartache
4 Evil Woman
5 Lost In My Dream
6 That Was Only Yesterday
7 Better By You, Better Than Me
8 Hangman Hang My Shell On A Tree

Bonus Tracks:

9 The Wight (Mono Single Version)
10 Do Right People (Mono Single Version)
11 That Was Only Yesterday (Mono Single Version)
12 Oh! Pretty Woman
13 Waitin' For The Wind (Mono Single Version)
14 Feelin' Bad (Mono Single Version)
15 The Weight (US Album Version)

Musicians:

Luther Grosvenor - guitar
Mike Harrison - keyboards, vocals
Mike Kellie - drums
Greg Ridley - bass, guitar
Gary Wright - keyboards, vocals


Exact Audio Copy V1.0 beta 1 from 15. November 2010

EAC extraction logfile from 4. April 2011, 22:15

Spooky Tooth / Spooky Two

Used drive : Optiarc DVD+-RW ND-3570A Adapter: 0 ID: 0

Read mode : Secure
Utilize accurate stream : Yes
Defeat audio cache : Yes
Make use of C2 pointers : No

Read offset correction : 48
Overread into Lead-In and Lead-Out : No
Fill up missing offset samples with silence : Yes
Delete leading and trailing silent blocks : No
Null samples used in CRC calculations : Yes
Used interface : Native Win32 interface for Win NT & 2000
Gap handling : Appended to previous track

Used output format : User Defined Encoder
Selected bitrate : 896 kBit/s
Quality : High
Add ID3 tag : No
Command line compressor : C:\Program Files\Exact Audio Copy\Flac\flac.exe
Additional command line options : -8 -V -T "ARTIST=%a" -T "TITLE=%t" -T "ALBUM=%g" -T "DATE=%y" -T "TRACKNUMBER=%n" -T "TOTALTRACKS=%x" -T "GENRE=%m" -T "ALBUMARTIST=%v" -T "ALBUM ARTIST=%v" -T "COMMENT=EAC V1.0 beta 1, Secure Mode, Test & Copy, AccurateRip

TOC of the extracted CD Track | Start | Length | Start sector | End sector
-----------
1 | 0:00.00 | 3:44.41 | 0 | 16840
2 | 3:44.41 | 3:24.37 | 16841 | 32177
3 | 7:09.03 | 3:28.74 | 32178 | 47851
4 | 10:38.02 | 9:07.21 | 47852 | 88897
5 | 19:45.23 | 5:06.09 | 88898 | 111856
6 | 24:51.32 | 3:57.66 | 111857 | 129697
7 | 28:49.23 | 3:42.08 | 129698 | 146355
8 | 32:31.31 | 5:47.22 | 146356 | 172402
9 | 38:18.53 | 3:08.43 | 172403 | 186545
10 | 41:27.21 | 4:44.64 | 186546 | 207909
11 | 46:12.10 | 3:53.04 | 207910 | 225388
12 | 50:05.14 | 3:28.62 | 225389 | 241050
13 | 53:34.01 | 3:30.35 | 241051 | 256835
14 | 57:04.36 | 3:19.04 | 256836 | 271764
15 | 60:23.40 | 3:14.27 | 271765 | 286341

Track 1 Filename H:\MY Music\EAC\01 - Waitin' for the Wind.wav Pre-gap length 0:00:02.00 Peak level 99.8 %
Extraction speed 4.2 X
Track quality 100.0 %
Test CRC C4AA536B
Copy CRC C4AA536B
Cannot be verified as accurate (confidence 2) [A15BA2DD], AccurateRip returned [D7443055]
Copy OK

Track 2 Filename H:\MY Music\EAC\02 - Feelin' Bad.wav Pre-gap length 0:00:01.70 Peak level 99.8 %
Extraction speed 4.5 X
Track quality 100.0 %
Test CRC DD224F7C
Copy CRC DD224F7C
Cannot be verified as accurate (confidence 2) [F58B56C3], AccurateRip returned [5EC626A9]
Copy OK

Track 3 Filename H:\MY Music\EAC\03 - I've Got Enough Heartache.wav Peak level 99.8 %
Extraction speed 5.0 X
Track quality 100.0 %
Test CRC AFAC0261
Copy CRC AFAC0261
Cannot be verified as accurate (confidence 2) [C57A6419], AccurateRip returned F3CD861
Copy OK

Track 4 Filename H:\MY Music\EAC\04 - Evil Woman.wav Peak level 99.8 %
Extraction speed 6.1 X
Track quality 100.0 %
Test CRC FF79239D
Copy CRC FF79239D
Cannot be verified as accurate (confidence 2) [27C17F34], AccurateRip returned [62D18D0E]
Copy OK

Track 5 Filename H:\MY Music\EAC\05 - Lost in My Dream.wav Pre-gap length 0:00:00.62 Peak level 99.8 %
Extraction speed 6.3 X
Track quality 100.0 %
Test CRC AA0E2C3A
Copy CRC AA0E2C3A
Cannot be verified as accurate (confidence 2) [51747115], AccurateRip returned [A3E6BB11]
Copy OK

Track 6 Filename H:\MY Music\EAC\06 - That Was Only Yesterday.wav Pre-gap length 0:00:00.61 Peak level 99.8 %
Extraction speed 6.4 X
Track quality 100.0 %
Test CRC 41832AF5
Copy CRC 41832AF5
Cannot be verified as accurate (confidence 2) [CA6E4461], AccurateRip returned [4340CCCD]
Copy OK

Track 7 Filename H:\MY Music\EAC\07 - Better by You, Better Than Me.wav Pre-gap length 0:00:03.02 Peak level 99.8 %
Extraction speed 6.6 X
Track quality 100.0 %
Test CRC 1D1F5BF6
Copy CRC 1D1F5BF6
Cannot be verified as accurate (confidence 2) [521D0969], AccurateRip returned [A6944085]
Copy OK

Track 8 Filename H:\MY Music\EAC\08 - Hangman Hang My Shell on a Tree.wav Peak level 99.8 %
Extraction speed 7.3 X
Track quality 100.0 %
Test CRC DFF890D8
Copy CRC DFF890D8
Cannot be verified as accurate (confidence 2) [9E5FEA92], AccurateRip returned [C49EFEA2]
Copy OK

Track 9 Filename H:\MY Music\EAC\09 - The Weight.wav Pre-gap length 0:00:01.62 Peak level 98.2 %
Extraction speed 6.8 X
Track quality 100.0 %
Test CRC 8D8F826F
Copy CRC 8D8F826F
Cannot be verified as accurate (confidence 2) [F2232DAA], AccurateRip returned [7416C79E]
Copy OK

Track 10 Filename H:\MY Music\EAC\10 - Do Right People.wav Pre-gap length 0:00:01.62 Peak level 98.8 %
Extraction speed 7.6 X
Track quality 100.0 %
Test CRC 3320D030
Copy CRC 3320D030
Cannot be verified as accurate (confidence 2) [495488D5], AccurateRip returned [9BF7240D]
Copy OK

Track 11 Filename H:\MY Music\EAC\11 - That Was Only Yesterday.wav Pre-gap length 0:00:00.62 Peak level 99.8 %
Extraction speed 7.5 X
Track quality 100.0 %
Test CRC 4144B34F
Copy CRC 4144B34F
Cannot be verified as accurate (confidence 2) [E4CF43E3], AccurateRip returned [A2BCE67D]
Copy OK

Track 12 Filename H:\MY Music\EAC\12 - Oh! Pretty Woman.wav Pre-gap length 0:00:01.57 Peak level 99.8 %
Extraction speed 7.7 X
Track quality 100.0 %
Test CRC 28C231F5
Copy CRC 28C231F5
Cannot be verified as accurate (confidence 2) [CBBFBD63], AccurateRip returned [816CEEC7]
Copy OK

Track 13 Filename H:\MY Music\EAC\13 - Waitin' for the Wind.wav Pre-gap length 0:00:01.58 Peak level 99.8 %
Extraction speed 7.8 X
Track quality 100.0 %
Test CRC 54128CEC
Copy CRC 54128CEC
Cannot be verified as accurate (confidence 2) [E8DC911D], AccurateRip returned [8A093A8D]
Copy OK

Track 14 Filename H:\MY Music\EAC\14 - Feelin' Bad.wav Pre-gap length 0:00:02.04 Peak level 99.8 %
Extraction speed 6.4 X
Track quality 99.9 %
Test CRC 59FB0CEF
Copy CRC 59FB0CEF
Cannot be verified as accurate (confidence 2) [0FA6F160], AccurateRip returned [54FA443E]
Copy OK

Track 15 Filename H:\MY Music\EAC\15 - The Weight.wav Pre-gap length 0:00:01.62 Peak level 98.8 %
Extraction speed 8.1 X
Track quality 100.0 %
Test CRC B255F5BE
Copy CRC B255F5BE
Cannot be verified as accurate (confidence 2) [7E9C2233], AccurateRip returned [0BC1927B]
Copy OK

No tracks could be verified as accurate
You may have a different pressing from the one(s) in the database

No errors occurred

End of status report

foobar2000 1.2.9 / Dynamic Range Meter 1.1.1
log date: 2015-01-25 19:24:11

--
Analyzed: Spooky Tooth / Spooky Two
--

DR Peak RMS Duration Track
--
DR6 -0.01 dB -9.54 dB 3:45 01-Waitin' for the Wind
DR7 -0.01 dB -10.64 dB 3:24 02-Feelin' Bad
DR7 -0.01 dB -9.18 dB 3:29 03-I've Got Enough Heartache
DR6 -0.01 dB -8.37 dB 9:07 04-Evil Woman
DR8 -0.01 dB -11.41 dB 5:06 05-Lost in My Dream
DR8 -0.01 dB -9.87 dB 3:58 06-That Was Only Yesterday
DR7 -0.01 dB -9.91 dB 3:42 07-Better by You, Better Than Me
DR8 -0.01 dB -11.43 dB 5:47 08-Hangman Hang My Shell on a Tree
DR7 -0.16 dB -8.27 dB 3:09 09-The Weight
DR5 -0.10 dB -6.71 dB 4:45 10-Do Right People
DR5 -0.01 dB -7.23 dB 3:53 11-That Was Only Yesterday
DR6 -0.01 dB -6.37 dB 3:29 12-Oh! Pretty Woman
DR5 -0.01 dB -7.66 dB 3:30 13-Waitin' for the Wind
DR6 -0.01 dB -7.92 dB 3:19 14-Feelin' Bad
DR6 -0.10 dB -8.09 dB 3:14 15-The Weight
--

Number of tracks: 15
Official DR value: DR6

Samplerate: 44100 Hz
Channels: 2
Bits per sample: 16
Bitrate: 802 kbps
Codec: FLAC

[CUETools log; Date: 25.01.2015 19:24:36; Version: 2.1.4]
[CTDB TOCID: grV7XExHr39V4_e3FHXG9bfW_0E-] found.
Track | CTDB Status
1 | (5/5) Accurately ripped
2 | (5/5) Accurately ripped
3 | (5/5) Accurately ripped
4 | (5/5) Accurately ripped
5 | (5/5) Accurately ripped
6 | (5/5) Accurately ripped
7 | (5/5) Accurately ripped
8 | (5/5) Accurately ripped
9 | (5/5) Accurately ripped
10 | (5/5) Accurately ripped
11 | (5/5) Accurately ripped
12 | (5/5) Accurately ripped
13 | (5/5) Accurately ripped
14 | (5/5) Accurately ripped
15 | (5/5) Accurately ripped
[AccurateRip ID: 0024f4a2-01a0bfc6-c30ee90f] found.
Track [ CRC | V2 ] Status
01 [a15ba2dd|93aba41a] (0+7/9) Accurately ripped
02 [f58b56c3|71f8c074] (0+7/9) Accurately ripped
03 [c57a6419|5a2aaae3] (0+7/9) Accurately ripped
04 [27c17f34|727e18d3] (0+7/9) Accurately ripped
05 [51747115|337735d7] (0+7/9) Accurately ripped
06 [ca6e4461|0ad8aff4] (0+7/9) Accurately ripped
07 [521d0969|3c79e1f6] (0+7/9) Accurately ripped
08 [9e5fea92|09d1f3a0] (0+7/9) Accurately ripped
09 [f2232daa|9e87e22d] (0+6/8) Accurately ripped
10 [495488d5|35c20f39] (0+7/9) Accurately ripped
11 [e4cf43e3|1d680964] (0+6/8) Accurately ripped
12 [cbbfbd63|44370006] (0+7/9) Accurately ripped
13 [e8dc911d|20fc7559] (0+5/7) Accurately ripped
14 [0fa6f160|92b05950] (0+6/8) Accurately ripped
15 [7e9c2233|750eed34] (0+7/9) Accurately ripped
Offsetted by -1108:
01 [d7443055] (2/9) Accurately ripped
02 [5ec626a9] (2/9) Accurately ripped
03 f3cd861 (2/9) Accurately ripped
04 [62d18d0e] (2/9) Accurately ripped
05 [a3e6bb11] (2/9) Accurately ripped
06 [4340cccd] (2/9) Accurately ripped
07 [a6944085] (2/9) Accurately ripped
08 [c49efea2] (2/9) Accurately ripped
09 [7416c79e] (2/8) Accurately ripped
10 [9bf7240d] (2/9) Accurately ripped
11 [a2bce67d] (2/8) Accurately ripped
12 [816ceec7] (2/9) Accurately ripped
13 [8a093a8d] (2/7) Accurately ripped
14 [54fa443e] (2/8) Accurately ripped
15 [0bc1927b] (2/9) Accurately ripped

Track Peak [ CRC32 ] [W/O NULL] [ LOG ]
-- 99,8 [DCFA1DCC] [AD7F14CE]
01 99,8 [C4AA536B] [A9E7234D] CRC32
02 99,8 [DD224F7C] [D699ECD7] CRC32
03 99,8 [AFAC0261] [F5D87471] CRC32
04 99,8 [FF79239D] [13847066] CRC32
05 99,8 [AA0E2C3A] [8ADE5406] CRC32
06 99,8 [41832AF5] [047390A6] CRC32
07 99,8 [1D1F5BF6] [9BF18FBD] CRC32
08 99,8 [DFF890D8] [D1547FBB] CRC32
09 98,2 [8D8F826F] [1F7EF820] CRC32
10 98,8 [3320D030] [74348626] CRC32
11 99,8 [4144B34F] [69ED2CBA] CRC32
12 99,8 [28C231F5] [04142294] CRC32
13 99,8 [54128CEC] [75504458] CRC32
14 99,8 [59FB0CEF] [E36A5F84] CRC32
15 98,8 255F5BE [52959850] CRC32

http://i57.fastpic.ru/big/2015/0128/58/73d5d90e326d8db75c9ca147330e7a58.jpg

All thanks go to the original releaser
DOWNLOAD LINKS:
Buy Premium To Support Me & Get Resumable Support & Max Speed


Links are Interchangeable - No Password - Single Extraction

Spooky Tooth - Spooky Two (1969) [2010, Universal Music, UICY-20033] Fast Download


Ad2

 
 
 
Dear visitor, you went to the site as an unregistered user. We encourage you to register or enter the site under your name.
 
   
 
 (Votes #: 0)