2013Zone For Latest Downloads

 
     
 
Legal Downloads » TV Shows » BBC - Secret Horse: Quest for the True Appaloosa (2015)
Menu
Home Applications
Games Movies
Music TV Shows
Torrents Graphics

Sitemap

RSS
 
Advanced Search
Last News
Site Info
Top Contributors:
  1    supper88 32766
  2    admin 32693
  3    Whisky 10080
  4    Shark_ 8911
  5    creativelivenew 8706
  6    whathesupa 2799
  7    candymypost 840
  8    hvnteam 629
  9    vuong87 3


Articles:
  This Hour: 0
  Today: 0
  This Month: 30
  All Time: 515561


Torrents:
  Today: 0
  Yesterday: 0
  All Time: 156684


Membership:
  Registered Today :0
  This Hour:0
  This Month:0
  Total:14
  Banned:1

{online}
{inform_torrent}
Friend:
We Recomend
Trend
Trend
Ad1

Search In Site

TV Shows : BBC - Secret Horse: Quest for the True Appaloosa (2015)
 

http://i63.fastpic.ru/big/2015/0128/bb/27d892fc2421bd302a587b49db8913bb.jpg
BBC - Secret Horse: Quest for the True Appaloosa (2015)
HDTV | 1376x658 | .MP4/AVC @ 3123 Kbps | 59mn 28s | Audio: English AAC 129 kbps, 2 channels | Subs: English | 1.35 GiB
Genre: Documentary

"Documentary in which a 69-year-old horsewoman from New Zealand sets off on an extraordinary journey to find the truth about the origins of the rare Appaloosa spotted horse. Back in the saddle for the first time in 12 years, she crosses one of the world's highest mountain ranges in search of a lost valley, where she hopes to discover whether the experts have been wrong all along and that the true source of the North American Appaloosa horse is Asia and not Europe, as the history books would have us believe. An inspirational adventure story inspired by a lifelong passion for horses."

General
Complete name : BBC.Secret.Horse.Quest.for.the.True.Appaloosa.mp4
Format : MPEG-4
Format profile : Base Media
Codec ID : isom
File size : 1.35 GiB
Duration : 59mn 28s
Overall bit rate mode : Variable
Overall bit rate : 3 256 Kbps
Encoded date : UTC 2015-01-24 11:01:29
Tagged date : UTC 2015-01-24 11:01:29

Video
ID : 1
Format : AVC
Format/Info : Advanced Video Codec
Format profile : [email protected]
Format settings, CABAC : Yes
Format settings, ReFrames : 6 frames
Codec ID : avc1
Codec ID/Info : Advanced Video Coding
Duration : 59mn 27s
Bit rate : 3 123 Kbps
Maximum bit rate : 16.3 Mbps
Width : 1 376 pixels
Height : 658 pixels
Display aspect ratio : 2.091
Frame rate mode : Constant
Frame rate : 25.000 fps
Color space : YUV
Chroma subsampling : 4:2:0
Bit depth : 8 bits
Scan type : Progressive
Bits/(Pixel*Frame) : 0.138
Stream size : 1.30 GiB (96%)
Title : [email protected]
Writing library : x264 core 144 r2525 40bb568
Encoding settings : cabac=1 / ref=6 / deblock=1:0:0 / analyse=0x3:0x113 / me=umh / subme=9 / psy=1 / psy_rd=1.00:0.00 / mixed_ref=1 / me_range=24 / chroma_me=1 / trellis=1 / 8x8dct=1 / cqm=0 / deadzone=21,11 / fast_pskip=0 / chroma_qp_offset=-2 / threads=3 / lookahead_threads=1 / sliced_threads=0 / nr=0 / decimate=1 / interlaced=0 / bluray_compat=0 / constrained_intra=0 / bframes=3 / b_pyramid=2 / b_adapt=1 / b_bias=0 / direct=1 / weightb=1 / open_gop=0 / weightp=2 / keyint=250 / keyint_min=25 / scenecut=40 / intra_refresh=0 / rc_lookahead=40 / rc=crf / mbtree=1 / crf=19.0 / qcomp=0.60 / qpmin=0 / qpmax=69 / qpstep=4 / ip_ratio=1.40 / aq=1:1.00
Encoded date : UTC 2015-01-24 10:35:02
Tagged date : UTC 2015-01-24 11:02:40

Audio
ID : 2
Format : AAC
Format/Info : Advanced Audio Codec
Format profile : LC
Codec ID : 40
Duration : 59mn 28s
Bit rate mode : Variable
Bit rate : 129 Kbps
Maximum bit rate : 161 Kbps
Channel(s) : 2 channels
Channel positions : Front: L R
Sampling rate : 48.0 KHz
Compression mode : Lossy
Stream size : 55.0 MiB (4%)
Language : English
Encoded date : UTC 2015-01-22 19:15:40
Tagged date : UTC 2015-01-24 11:02:40

Text
ID : 3
Format : Timed text
Codec ID : tx3g
Duration : 58mn 46s
Bit rate mode : Variable
Bit rate : 59 bps
Stream size : 25.2 KiB (0%)
Language : English
Encoded date : UTC 2015-01-24 11:02:40
Tagged date : UTC 2015-01-24 11:02:40

Screenshots:

http://i59.fastpic.ru/big/2015/0128/39/4eb0a9f68077f23eb9af5eb3cbde2939.jpg

http://i65.fastpic.ru/big/2015/0128/83/fd36101c6c0dd27a451acb94105af383.jpg

http://i63.fastpic.ru/big/2015/0128/84/55e4ca42f33e66eecbcdddc7cf77c584.jpg

http://i59.fastpic.ru/big/2015/0128/14/4361357bf6c53ddbd9effdfffa399014.jpg


DOWNLOAD LINKS:
Buy Premium To Support Me & Get Resumable Support & Max Speed


Links are Interchangeable - No Password - Single Extraction

BBC - Secret Horse: Quest for the True Appaloosa (2015) Fast Download


Ad2

 
 
 
Dear visitor, you went to the site as an unregistered user. We encourage you to register or enter the site under your name.
 
   
 
 (Votes #: 0)