2013Zone For Latest Downloads

 
     
 
Legal Downloads » TV Shows » History Channel - Museum Men: First WWI Tank (2015)
Menu
Home Applications
Games Movies
Music TV Shows
Torrents Graphics

Sitemap

RSS
 
Advanced Search
Last News
Site Info
Top Contributors:
  1    supper88 32766
  2    admin 32708
  3    Whisky 10080
  4    Shark_ 8911
  5    creativelivenew 8706
  6    whathesupa 2799
  7    candymypost 840
  8    hvnteam 629
  9    vuong87 3


Articles:
  This Hour: 0
  Today: 17
  This Month: 17
  All Time: 515518


Torrents:
  Today: 0
  Yesterday: 0
  All Time: 156676


Membership:
  Registered Today :0
  This Hour:0
  This Month:0
  Total:14
  Banned:1

{online}
{inform_torrent}
Friend:
Full Download Scripts
Torrent Download
Trend
Trend

Search In Site

TV Shows : History Channel - Museum Men: First WWI Tank (2015)
 

http://i64.fastpic.ru/big/2015/0128/21/ff2da3d0842245fafd3bd91bbcf16a21.jpg
History Channel - Museum Men: First WWI Tank (2015)
HDTV | 1280x720 | .MP4/AVC @ 3025 Kbps | 42mn 57s | Audio: English AAC 160 kbps, 2 channels | Subs: None | 980 MiB
Genre: Documentary

"Creative Arts is building the Mark 1 tank for the Discovery Park of America, one of the premier museums in the southern United States. The Mark 1 was the most game-changing weapon to emerge from World War 1 because it revolutionized modern warfare. With no replicas in the United States, Creative Arts will have to depend on photographs and illustrations as they build the first Mark 1 ever for any American museum. The team also takes on a side project-a telephone booth for a local Florida hotel. This historical phone booth will house the hotel's prized possession: an actual 1930's era telephone!"

General
Complete name : Museum.Men.First.WWI.Tank.mp4
Format : MPEG-4
Format profile : Base Media
Codec ID : isom
File size : 980 MiB
Duration : 42mn 57s
Overall bit rate mode : Variable
Overall bit rate : 3 190 Kbps

Video
ID : 1
Format : AVC
Format/Info : Advanced Video Codec
Format profile : High@L4.1
Format settings, CABAC : No
Format settings, ReFrames : 1 frame
Format settings, GOP : M=1, N=12
Codec ID : avc1
Codec ID/Info : Advanced Video Coding
Duration : 42mn 57s
Bit rate : 3 025 Kbps
Width : 1 280 pixels
Height : 720 pixels
Display aspect ratio : 16:9
Frame rate mode : Constant
Frame rate : 29.970 fps
Color space : YUV
Chroma subsampling : 4:2:0
Bit depth : 8 bits
Scan type : Progressive
Bits/(Pixel*Frame) : 0.110
Stream size : 930 MiB (95%)
Encoded date : UTC 2015-01-25 09:56:22
Tagged date : UTC 2015-01-25 09:56:22

Audio
ID : 2
Format : AAC
Format/Info : Advanced Audio Codec
Format profile : LC
Codec ID : 40
Duration : 42mn 57s
Bit rate mode : Variable
Bit rate : 160 Kbps
Channel(s) : 2 channels
Channel positions : Front: L R
Sampling rate : 48.0 KHz
Compression mode : Lossy
Stream size : 49.2 MiB (5%)
Encoded date : UTC 2015-01-25 09:56:22
Tagged date : UTC 2015-01-25 09:56:22

Screenshots:

http://i60.fastpic.ru/big/2015/0128/78/274441177eca5046e51d6ac799acab78.jpg

http://i65.fastpic.ru/big/2015/0128/41/aa3817cbf3d2a891d25ab5a88f418a41.jpg

http://i63.fastpic.ru/big/2015/0128/0c/68e5a47a94f04906df43a2817c12760c.jpg

http://i65.fastpic.ru/big/2015/0128/38/5e39ec70bb2de4e8330004f8f3082738.jpg


DOWNLOAD LINKS:
Buy Premium To Support Me & Get Resumable Support & Max Speed


Links are Interchangeable - No Password - Single Extraction

History Channel - Museum Men: First WWI Tank (2015) Fast Download



 
 
 
Dear visitor, you went to the site as an unregistered user. We encourage you to register or enter the site under your name.
 
   
 
 (Votes #: 0)