2013Zone For Latest Downloads

 
     
 
Legal Downloads » Music » Bonnie Tyler - Greatest Hits (1989)
Menu
Home Applications
Games Movies
Music TV Shows
Torrents Graphics

Sitemap

RSS
 
Advanced Search
Last News
Site Info
Top Contributors:
  1    supper88 32766
  2    admin 32693
  3    Whisky 10080
  4    Shark_ 8911
  5    creativelivenew 8706
  6    whathesupa 2799
  7    candymypost 840
  8    hvnteam 629
  9    vuong87 3


Articles:
  This Hour: 0
  Today: 0
  This Month: 0
  All Time: 515561


Torrents:
  Today: 0
  Yesterday: 0
  All Time: 156684


Membership:
  Registered Today :0
  This Hour:0
  This Month:0
  Total:14
  Banned:1

{online}
{inform_torrent}
Friend:
We Recomend
Trend
Trend
Ad1

Search In Site

Music : Bonnie Tyler - Greatest Hits (1989)
 
http://i63.fastpic.ru/big/2015/0128/40/8886dd42f159da552bab7e4838ee4c40.jpg

Bonnie Tyler - Greatest Hits (1989)
EAC Rip | FLAC Image + Cue + Log - 417 MB | MP3 CBR @320 kbps - 150 MB | Full scans - 45.3 MB
Label: CBS Records. | Catalog.#: 465375 2 | Genre: Pop, Adult Contemporary

"Welsh rock & roll chanteuse Bonnie Tyler earned an international following for her rough, passionate vocal style, which showed the influence of such classic rock legends as Rod Stewart and Janis Joplin. Greatest Hits features 16 well-remembered songs from her first 12 years as a recording artist. Selections include "It's a Heartache," "Total Eclipse of the Heart," "Holding Out for a Hero," "Faster Than the Speed of Light," "Straight from the Heart," and many more. "

Track Listing:

01. Total Eclipse Of The Heart - 04:32
02. Holding Out For A Hero - 04:25
03. (The World Is Full Of) Married Men - 03:51
04. Rockin' Goodway (To Mess Around And Fall In Love) - 02:54
05. Here She Comes - 03:26
06. Band Of Gold - 03:50
07. Faster Than The Speed Of Night - 04:43
08. Lovers Again - 04:18
09. Lost In France - 03:57
10. It's A Heartache - 03:32
11. Getting So Excited - 03:32
12. Have You Ever Seen The Rain_ - 04:09
13. I Believe In Your Sweet Love - 03:44
14. If I Sing You A Love Song - 04:48
15. More Than A Lover - 04:15
16. Straight From The Heart - 03:41

Exact Audio Copy V1.0 beta 3 from 29. August 2011

EAC extraction logfile from 9. January 2015, 20:24

Bonnie Tyler / Greatest Hits

Used drive : HL-DT-STDVDRAM GH22NS40 Adapter: 4 ID: 0

Read mode : Secure
Utilize accurate stream : Yes
Defeat audio cache : Yes
Make use of C2 pointers : No

Read offset correction : 667
Overread into Lead-In and Lead-Out : No
Fill up missing offset samples with silence : Yes
Delete leading and trailing silent blocks : No
Null samples used in CRC calculations : Yes
Used interface : Native Win32 interface for Win NT & 2000

Used output format : User Defined Encoder
Selected bitrate : 1024 kBit/s
Quality : High
Add ID3 tag : No
Command line compressor : C:\Program Files\FLAC\flac.exe
Additional command line options : -V -8 -T "Date=%year%" -T "Genre=%genre%" %source%

TOC of the extracted CD Track | Start | Length | Start sector | End sector
-----------
1 | 0:00.00 | 4:31.52 | 0 | 20376
2 | 4:31.52 | 4:25.05 | 20377 | 40256
3 | 8:56.57 | 3:51.10 | 40257 | 57591
4 | 12:47.67 | 2:53.48 | 57592 | 70614
5 | 15:41.40 | 3:25.42 | 70615 | 86031
6 | 19:07.07 | 3:49.43 | 86032 | 103249
7 | 22:56.50 | 4:42.70 | 103250 | 124469
8 | 27:39.45 | 4:17.20 | 124470 | 143764
9 | 31:56.65 | 3:56.32 | 143765 | 161496
10 | 35:53.22 | 3:31.43 | 161497 | 177364
11 | 39:24.65 | 3:31.45 | 177365 | 193234
12 | 42:56.35 | 4:08.67 | 193235 | 211901
13 | 47:05.27 | 3:44.18 | 211902 | 228719
14 | 50:49.45 | 4:47.70 | 228720 | 250314
15 | 55:37.40 | 4:14.60 | 250315 | 269424
16 | 59:52.25 | 3:40.35 | 269425 | 285959

Range status and errors

Selected range Filename I:\Rips\Bonnie Tyler - Greatest Hits.wav Peak level 100.0 %
Extraction speed 1.9 X
Range quality 100.0 %
Test CRC AAE00F02
Copy CRC AAE00F02
Copy OK

No errors occurred


AccurateRip summary

Track 1 accurately ripped (confidence 7) [750909CD] (AR v2)
Track 2 accurately ripped (confidence 8) [4749C63D] (AR v2)
Track 3 accurately ripped (confidence 7) [65438C3A] (AR v2)
Track 4 accurately ripped (confidence 7) [5E647AA1] (AR v2)
Track 5 accurately ripped (confidence 6) [1C71CC3C] (AR v2)
Track 6 accurately ripped (confidence 7) 90FE41A (AR v2)
Track 7 accurately ripped (confidence 7) [2F88F965] (AR v2)
Track 8 accurately ripped (confidence 7) [033CAF24] (AR v2)
Track 9 accurately ripped (confidence 7) [74514429] (AR v2)
Track 10 accurately ripped (confidence 7) [4DB351C1] (AR v2)
Track 11 accurately ripped (confidence 7) [A9248C68] (AR v2)
Track 12 accurately ripped (confidence 6) [0AD16296] (AR v2)
Track 13 accurately ripped (confidence 7) D2DA269 (AR v2)
Track 14 accurately ripped (confidence 7) [321EF0C5] (AR v2)
Track 15 accurately ripped (confidence 7) [4B77F980] (AR v2)
Track 16 accurately ripped (confidence 6) [76D93657] (AR v2)

All tracks accurately ripped

End of status report

==== Log checksum E755700BA98BAC775691946BD3D44244E6287AE1DE991C6F1D0A5BF4476C2016 ====

[CUETools log; Date: 1/24/2015 5:18:50 PM; Version: 2.1.4]
[CTDB TOCID: _qHkEtoivHH4q0cWuX6ikRVDCRg-] found.
Track | CTDB Status
1 | (17/18) Accurately ripped
2 | (17/18) Accurately ripped
3 | (17/18) Accurately ripped
4 | (17/18) Accurately ripped
5 | (17/18) Accurately ripped
6 | (17/18) Accurately ripped
7 | (17/18) Accurately ripped
8 | (18/18) Accurately ripped
9 | (17/18) Accurately ripped
10 | (17/18) Accurately ripped
11 | (17/18) Accurately ripped
12 | (17/18) Accurately ripped
13 | (17/18) Accurately ripped
14 | (17/18) Accurately ripped
15 | (17/18) Accurately ripped
16 | (17/18) Accurately ripped
[AccurateRip ID: 0024ffc9-01bb255c-fe0ee410] found.
Track [ CRC | V2 ] Status
01 e40112c|750909cd (17+07/31) Accurately ripped
02 [34878942|4749c63d] (17+08/32) Accurately ripped
03 [97f2aa6f|65438c3a] (17+07/32) Accurately ripped
04 [2915f8fe|5e647aa1] (17+07/32) Accurately ripped
05 [9bf54eb3|1c71cc3c] (17+06/30) Accurately ripped
06 [a0157280|b90fe41a] (17+07/32) Accurately ripped
07 [f601878d|2f88f965] (17+07/32) Accurately ripped
08 [5f03498b|033caf24] (17+07/32) Accurately ripped
09 [fe90896f|74514429] (16+07/31) Accurately ripped
10 [7a256af6|4db351c1] (16+07/31) Accurately ripped
11 [d61f6fa0|a9248c68] (16+07/31) Accurately ripped
12 [82da8f4a|0ad16296] (17+06/30) Accurately ripped
13 e20ef74|bd2da269 (16+07/31) Accurately ripped
14 [766d4eed|321ef0c5] (15+07/29) Accurately ripped
15 15639db|4b77f980 (16+07/31) Accurately ripped
16 [522ef29c|76d93657] (16+06/29) Accurately ripped
Offsetted by 58:
01 [9f86516a] (02/31) Accurately ripped
02 [df1b6a72] (02/32) Accurately ripped
03 [094ff06a] (03/32) Accurately ripped
04 [12c6f0f1] (03/32) Accurately ripped
05 [640484be] (02/30) Accurately ripped
06 [e74bbda9] (03/32) Accurately ripped
07 [508ac63d] (03/32) Accurately ripped
08 [c65ad151] (03/32) Accurately ripped
09 [89cf5d17] (03/31) Accurately ripped
10 [6d0d7437] (03/31) Accurately ripped
11 3da4bf3 (03/31) Accurately ripped
12 [a6dbfcb0] (02/30) Accurately ripped
13 [cb41207c] (03/31) Accurately ripped
14 [a9717e26] (02/29) Accurately ripped
15 [2344ef45] (03/31) Accurately ripped
16 [7e8f2e42] (02/29) Accurately ripped

Track Peak [ CRC32 ] [W/O NULL] [ LOG ]
-- 100.0 [AAE00F02] [EA8C72EC] CRC32
01 91.7 [3E8E88B0] [E96C8A63]
02 96.4 [1326534C] [FABEB216]
03 98.7 [5EF6EE1F] [4CA249C2]
04 100.0 [9C7DFA48] [F8027A2B]
05 83.8 [C75B43F5] [DE8C1CB1]
06 92.4 5F4F83A [6B2C9A00]
07 97.7 [8015DC03] [28C43847]
08 75.8 [C6EB7A1B] [19A830AD]
09 89.1 [DCC5633C] [9687CFC8]
10 82.7 [CA3C8095] [D516083E]
11 99.9 [A4B13598] [12A955D4]
12 84.7 [9E2E4B8E] [828AB42B]
13 91.3 [9608841B] [79EA6BB9]
14 80.0 [88708CE4] [61CD0409]
15 100.0 [91959A2F] [7F172858]
16 85.0 [DEB4669F] [C7ECBF82]

foobar2000 1.2.8 / Dynamic Range Meter 1.1.1
log date: 2015-01-24 17:24:48

--
Analyzed: Bonnie Tyler / Greatest Hits
--

DR Peak RMS Duration Track
--
DR12 -0.75 dB -16.11 dB 4:32 01-Total Eclipse Of The Heart
DR12 -0.32 dB -14.83 dB 4:25 02-Holding Out For A Hero
DR13 -0.11 dB -15.85 dB 3:51 03-(The World Is Full Of) Married Men
DR13 0.00 dB -14.54 dB 2:54 04-Rockin' Goodway (To Mess Around And Fall In Love)
DR14 -1.53 dB -17.78 dB 3:26 05-Here She Comes
DR12 -0.69 dB -15.24 dB 3:50 06-Band Of Gold
DR12 -0.20 dB -15.09 dB 4:43 07-Faster Than The Speed Of Night
DR12 -2.40 dB -19.44 dB 4:17 08-Lovers Again
DR12 -1.00 dB -15.26 dB 3:56 09-Lost In France
DR13 -1.65 dB -17.04 dB 3:32 10-It's A Heartache
DR14 0.00 dB -15.35 dB 3:32 11-Getting So Excited
DR13 -1.44 dB -16.50 dB 4:09 12-Have You Ever Seen The Rain?
DR12 -0.79 dB -15.04 dB 3:44 13-I Believe In Your Sweet Love
DR12 -1.93 dB -17.86 dB 4:48 14-If I Sing You A Love Song
DR13 0.00 dB -16.64 dB 4:15 15-More Than A Lover
DR12 -1.41 dB -15.49 dB 3:40 16-Straight From The Heart
--

Number of tracks: 16
Official DR value: DR12

Samplerate: 44100 Hz
Channels: 2
Bits per sample: 16
Bitrate: 891 kbps
Codec: FLAC

Released Date: 1989
Format: CD, Compilation
Length: 1:03:32

http://i60.fastpic.ru/big/2015/0128/71/9b37a56b635229cbae8f5216760d4971.jpg

http://i58.fastpic.ru/big/2015/0128/4a/694b168601a911cab5c42fae547db34a.jpg



DOWNLOAD LINKS:
Buy Premium To Support Me & Get Resumable Support & Max Speed


Links are Interchangeable - No Password - Single Extraction

Bonnie Tyler - Greatest Hits (1989) Fast Download


Ad2

 
 
 
Dear visitor, you went to the site as an unregistered user. We encourage you to register or enter the site under your name.
 
   
 
 (Votes #: 0)