2013Zone For Latest Downloads

 
     
 
Legal Downloads » Music » Original Album Series: Jethro Tull (2014) [5CD Box Set]
Menu
Home Applications
Games Movies
Music TV Shows
Torrents Graphics

Sitemap

RSS
 
Advanced Search
Last News
Site Info
Top Contributors:
  1    supper88 32766
  2    admin 32693
  3    Whisky 10080
  4    Shark_ 8911
  5    creativelivenew 8706
  6    whathesupa 2799
  7    candymypost 840
  8    hvnteam 629
  9    vuong87 3


Articles:
  This Hour: 0
  Today: 0
  This Month: 10
  All Time: 515561


Torrents:
  Today: 0
  Yesterday: 0
  All Time: 156684


Membership:
  Registered Today :0
  This Hour:0
  This Month:0
  Total:14
  Banned:1

{online}
{inform_torrent}
Friend:
We Recomend
Trend
Trend
Ad1

Search In Site

Music : Original Album Series: Jethro Tull (2014) [5CD Box Set]
 
http://i63.fastpic.ru/big/2015/0128/94/afcd1d3bad50c5dd6a6b981609446c94.jpg

Original Album Series: Jethro Tull (2014)
EAC | Flac(Image) + Cue + Log | ~ 1381 Mb
5CD | Chrysalis, 2564628533 | Scans(png) -> 308 Mb
Progressive Rock

"This budget-priced box set from the prog rock/folk greats rounds up five complete albums. First up is 1977's Songs from the Wood, which is the first in a trio of fan-favorite folk-centric releases that included Heavy Horses (1978) and Stormwatch (1979), both of which are also included in the package..."

Original Album Series: Jethro Tull (2014):

http://i59.fastpic.ru/big/2015/0128/c3/8a16bd8d301a0b8068014483f2235fc3.jpg

CD01: Jethro Tull - Songs From The Wood (1976)
EAC | Flac(Image) + Cue + Log | ~ 287 Mb
Chrysalis, 2564628533-1 | Scans(png) -> 308 Mb
Progressive Rock

"Far and away the prettiest record Jethro Tull released at least since Thick as a Brick and a special treat for anyone with a fondness for the group's more folk-oriented material. Ian Anderson had moved to the countryside sometime earlier, and it showed in his choice of source material. The band's aggressive rock interplay and Anderson's fascination with early British folk melodies produce a particularly appealing collection of songs -- the seriousness with which the group took this effort can be discerned by the album's unofficial "full" title on the original LP: "Jethro Tull With Kitchen Prose, Gutter Rhymes, and Divers Songs from the Wood." The group's sound was never more carefully balanced between acoustic folk and hard rock -- the result is an album that sounds a great deal like the work of Tull's Chrysalis Records labelmates Steeleye Span (though Nigel Pegrum never attacked his cymbals -- or his entire drum kit -- with Barriemore Barlow's ferocity). The harmonizing on "Songs From the Wood" fulfills the promise shown in some of the singing on Thick as a Brick, and the delicacy of much of the rest, including "Ring Out, Solstice Bells" (where the group plays full out, but with wonderful elegance), "Hunting Girl," and "Velvet Green," set a new standard for the group's sound. "Pibroch (Cap in Hand)," which is dominated by Martin Barre's electric guitar -- in a stunning array of overlapping flourishes at full volume -- is the only concession to the group's usual hard rock rave-ups, and even it has some lovely singing to counterbalance the bulk of the song.


by Bruce Eder, AMG
"

Tracklist:

01. Songs From The Wood 04:55
02. Jack-In-The-Green 02:31
03. Cup Of Wonder 04:33
04. Hunting Girl 05:12
05. Ring Out Solstice Bells 03:47
06. Velvet Green 06:04
07. The Whistler 03:31
08. Pibroch (Cap In Hand) 08:25
09. Fire At Midnight 02:33

Exact Audio Copy V1.0 beta 3 from 29. August 2011

EAC extraction logfile from 20. January 2015, 18:25

Jethro Tull / Songs From The Wood

Used drive : PLEXTOR BD-R PX-B950SA Adapter: 6 ID: 0

Read mode : Secure
Utilize accurate stream : Yes
Defeat audio cache : Yes
Make use of C2 pointers : No

Read offset correction : 6
Overread into Lead-In and Lead-Out : No
Fill up missing offset samples with silence : Yes
Delete leading and trailing silent blocks : No
Null samples used in CRC calculations : Yes
Used interface : Native Win32 interface for Win NT & 2000

Used output format : Internal WAV Routines
Sample format : 44.100 Hz; 16 Bit; Stereo

TOC of the extracted CD Track | Start | Length | Start sector | End sector
-----------
1 | 0:00.00 | 4:55.42 | 0 | 22166
2 | 4:55.42 | 2:31.10 | 22167 | 33501
3 | 7:26.52 | 4:33.63 | 33502 | 54039
4 | 12:00.40 | 5:12.72 | 54040 | 77511
5 | 17:13.37 | 3:47.33 | 77512 | 94569
6 | 21:00.70 | 6:04.47 | 94570 | 121916
7 | 27:05.42 | 3:31.05 | 121917 | 137746
8 | 30:36.47 | 8:35.45 | 137747 | 176416
9 | 39:12.17 | 2:33.40 | 176417 | 187931

Range status and errors

Selected range Filename C:\Users\Meijin\Desktop\ALLexxess\Jethro Tull\2014 Original Album Series (5CD Box Set Chrysalis Records)\1976 Songs From The Wood\Jethro Tull - Songs From The Wood.wav Peak level 99.2 %
Extraction speed 6.8 X
Range quality 100.0 %
Test CRC E35020D1
Copy CRC E35020D1
Copy OK

No errors occurred


AccurateRip summary

Track 1 accurately ripped (confidence 7) [E04DD68E] (AR v2)
Track 2 accurately ripped (confidence 7) [F4DFDDB9] (AR v2)
Track 3 accurately ripped (confidence 7) [888A54A7] (AR v2)
Track 4 accurately ripped (confidence 7) [09F57BC4] (AR v2)
Track 5 accurately ripped (confidence 7) [277E4380] (AR v2)
Track 6 accurately ripped (confidence 7) [639596DC] (AR v2)
Track 7 accurately ripped (confidence 7) [DBD63743] (AR v2)
Track 8 accurately ripped (confidence 7) [EA266D2B] (AR v2)
Track 9 accurately ripped (confidence 7) [13E44BCB] (AR v2)

All tracks accurately ripped

End of status report

foobar2000 1.2.9 / Dynamic Range Meter 1.1.1
log date: 2015-01-24 19:31:03

--
Analyzed: Jethro Tull / Songs From The Wood
--

DR Peak RMS Duration Track
--
DR8 -0.07 dB -10.94 dB 4:56 01-Songs From The Wood
DR10 -0.07 dB -13.07 dB 2:31 02-Jack-In-The-Green
DR10 -0.07 dB -12.16 dB 4:34 03-Cup Of Wonder
DR9 -0.07 dB -10.89 dB 5:13 04-Hunting Girl
DR10 -0.07 dB -11.94 dB 3:47 05-Ring Out, Solstice Bells
DR10 -0.07 dB -12.54 dB 6:05 06-Velvet Green
DR10 -0.07 dB -11.36 dB 3:31 07-The Whistler
DR10 -0.07 dB -12.51 dB 8:36 08-Pibroch (Cap In Hand)
DR10 -0.08 dB -12.75 dB 2:34 09-Fire At Midnight
--

Number of tracks: 9
Official DR value: DR10

Samplerate: 44100 Hz
Channels: 2
Bits per sample: 16
Bitrate: 933 kbps
Codec: FLAC

[CUETools log; Date: 24.01.2015 19:31:14; Version: 2.1.4]
[CTDB TOCID: t34CeEo.AhYRh5IusPyOSRpYWXA-] found.
Track | CTDB Status
1 | (12/12) Accurately ripped
2 | (12/12) Accurately ripped
3 | (12/12) Accurately ripped
4 | (12/12) Accurately ripped
5 | (12/12) Accurately ripped
6 | (12/12) Accurately ripped
7 | (12/12) Accurately ripped
8 | (12/12) Accurately ripped
9 | (12/12) Accurately ripped
[AccurateRip ID: 000dd24c-0066d211-7509c909] found.
Track [ CRC | V2 ] Status
01 [6e7c4c16|e04dd68e] (03+07/10) Accurately ripped
02 [134b7e33|f4dfddb9] (03+07/10) Accurately ripped
03 [caac9f40|888a54a7] (03+07/10) Accurately ripped
04 [684c78f2|09f57bc4] (03+07/10) Accurately ripped
05 [c06fcfe0|277e4380] (03+07/10) Accurately ripped
06 [78b34e91|639596dc] (03+07/10) Accurately ripped
07 [2b3b2f28|dbd63743] (03+07/10) Accurately ripped
08 [528d1836|ea266d2b] (03+07/10) Accurately ripped
09 [738d87d6|13e44bcb] (03+07/10) Accurately ripped

Track Peak [ CRC32 ] [W/O NULL] [ LOG ]
-- 99,2 [E35020D1] [908D014A] CRC32
01 99,2 [2930B43B] [9FD01044]
02 99,1 [1A649972] [D06875E6]
03 99,2 [37F5DACB] [941D89BB]
04 99,2 [5B3D716E] [4B769164]
05 99,1 [7493AFBB] [37F15470]
06 99,1 [10AEE2D2] [D671FBF9]
07 99,2 [970E6F44] [74220EF5]
08 99,2 [5BE64BD4] [76C42C40]
09 99,1 3E9259F [F9096BEF]



http://i66.fastpic.ru/big/2015/0128/93/b6f1d7086f0aa73f4a96fe28a1880793.jpg

CD02: Jethro Tull - Heavy Horses (1977)
EAC | Flac(Image) + Cue + Log | ~ 285 Mb
Chrysalis, 2564628533-2 | Scans(png) -> 308 Mb
Progressive Rock

"Jethro Tull's 11th studio album, Heavy Horses, is one of their prettier records, a veritable celebration of English folk music chock-full of gorgeous melodies, briskly played acoustic guitars and mandolins, and Ian Anderson's flute lilting in the background, backed by the group in top form. This record is a fairly close cousin to 1977's Songs From the Wood, except that its songs are decidedly more passionate, sung with a rough, robust energy that much of Tull's work since Thick as a Brick had been missing, and surpassing even Aqualung in its lustiness. "No Lullaby" is the signature heavy riff song, a concert version of which opened Bursting Out: Jethro Tull Live. Anderson sings it -- and everything else here -- as though they might be the last lines he ever gets to voice, with tremendous intensity. The band plays hard behind him throughout, with lead guitarist Martin Barre (most notably on "Weathercock") and bassist John Glascock showing up very well throughout. Anderson's production and Robin Black's engineering catch their every nuance without sacrificing the delicacy of his acoustic guitar and mandolin playing. "Acres Wild," "Rover," "One Brown Mouse," "Weathercock," and "Moths," the latter featuring some of David Palmer's most tasteful orchestral arrangements, are among the loveliest songs in the group's entire repertory. Curved Air's Darryl Way plays violin solo on the title track -- a tribute to England's vanishing shire horses, which doesn't really take off until Way's instrument comes in on the break, with a marked tempo change -- and on "Acres Wild."


by Bruce Eder, AMG
"

Tracklist:

01. And The Mouse Police Never Sleeps 03:12
02. Acres Wild 03:24
03. No Lullaby 07:54
04. Moths 03:27
05. Journeyman 03:57
06. Rover 04:17
07. One Brown Mouse 03:22
08. Heavy Horses 08:54
09. Weathercock 04:06

Exact Audio Copy V1.0 beta 3 from 29. August 2011

EAC extraction logfile from 19. January 2015, 20:00

Jethro Tull / Heavy Horses

Used drive : PLEXTOR BD-R PX-B950SA Adapter: 6 ID: 0

Read mode : Secure
Utilize accurate stream : Yes
Defeat audio cache : Yes
Make use of C2 pointers : No

Read offset correction : 6
Overread into Lead-In and Lead-Out : No
Fill up missing offset samples with silence : Yes
Delete leading and trailing silent blocks : No
Null samples used in CRC calculations : Yes
Used interface : Native Win32 interface for Win NT & 2000

Used output format : Internal WAV Routines
Sample format : 44.100 Hz; 16 Bit; Stereo

TOC of the extracted CD Track | Start | Length | Start sector | End sector
-----------
1 | 0:00.00 | 3:12.32 | 0 | 14431
2 | 3:12.32 | 3:24.35 | 14432 | 29766
3 | 6:36.67 | 7:54.45 | 29767 | 65361
4 | 14:31.37 | 3:27.50 | 65362 | 80936
5 | 17:59.12 | 3:57.65 | 80937 | 98776
6 | 21:57.02 | 4:17.08 | 98777 | 118059
7 | 26:14.10 | 3:22.55 | 118060 | 133264
8 | 29:36.65 | 8:54.50 | 133265 | 173364
9 | 38:31.40 | 4:06.70 | 173365 | 191884

Range status and errors

Selected range Filename C:\Users\Meijin\Desktop\ALLexxess\Jethro Tull\2014 Original Album Series (5CD Box Set Chrysalis Records)\1977 Heavy Horses\Jethro Tull - Heavy Horses.wav Peak level 99.2 %
Extraction speed 3.1 X
Range quality 100.0 %
Test CRC EAFF480D
Copy CRC EAFF480D
Copy OK

No errors occurred


AccurateRip summary

Track 1 accurately ripped (confidence 9) [F4A8A696] (AR v2)
Track 2 accurately ripped (confidence 9) [C28B67AC] (AR v2)
Track 3 accurately ripped (confidence 9) [7D3A3273] (AR v2)
Track 4 accurately ripped (confidence 9) [4AE3E1A2] (AR v2)
Track 5 accurately ripped (confidence 9) [54D75B45] (AR v2)
Track 6 accurately ripped (confidence 9) [70505963] (AR v2)
Track 7 accurately ripped (confidence 9) [A33C8560] (AR v2)
Track 8 accurately ripped (confidence 9) 09A921D (AR v2)
Track 9 accurately ripped (confidence 9) [A56F0572] (AR v2)

All tracks accurately ripped

End of status report

foobar2000 1.2.9 / Dynamic Range Meter 1.1.1
log date: 2015-01-24 19:31:24

--
Analyzed: Jethro Tull / Heavy Horses
--

DR Peak RMS Duration Track
--
DR9 -0.07 dB -11.67 dB 3:12 01-And the Mouse Police Never Sleeps
DR12 -0.15 dB -14.27 dB 3:24 02-Acres Wild
DR11 -0.16 dB -13.89 dB 7:55 03-No Lullaby
DR12 -0.31 dB -15.43 dB 3:28 04-Moths
DR10 -0.08 dB -12.72 dB 3:58 05-Journeyman
DR12 -0.08 dB -13.41 dB 4:17 06-Rover
DR11 -0.19 dB -13.47 dB 3:23 07-One Brown Mouse
DR10 -0.07 dB -12.59 dB 8:55 08-Heavy Horses
DR12 -0.07 dB -14.75 dB 4:07 09-Weathercock
--

Number of tracks: 9
Official DR value: DR11

Samplerate: 44100 Hz
Channels: 2
Bits per sample: 16
Bitrate: 905 kbps
Codec: FLAC

[CUETools log; Date: 24.01.2015 19:31:29; Version: 2.1.4]
[CTDB TOCID: nzL68YT5CvdYZEXbc9Tq443WTiQ-] found.
Track | CTDB Status
1 | (13/13) Accurately ripped
2 | (13/13) Accurately ripped
3 | (13/13) Accurately ripped
4 | (13/13) Accurately ripped
5 | (13/13) Accurately ripped
6 | (13/13) Accurately ripped
7 | (13/13) Accurately ripped
8 | (13/13) Accurately ripped
9 | (13/13) Accurately ripped
[AccurateRip ID: 000dd27a-0066f9dc-8109fe09] found.
Track [ CRC | V2 ] Status
01 [52ca7eb3|f4a8a696] (02+09/11) Accurately ripped
02 [66cc4d3d|c28b67ac] (02+09/11) Accurately ripped
03 [38e466a1|7d3a3273] (02+09/11) Accurately ripped
04 [9077c7f0|4ae3e1a2] (02+09/11) Accurately ripped
05 [5f84bf6f|54d75b45] (02+09/11) Accurately ripped
06 [a75ff991|70505963] (02+09/11) Accurately ripped
07 [c72bc705|a33c8560] (02+09/11) Accurately ripped
08 [78fc8f40|b09a921d] (02+09/11) Accurately ripped
09 [5429809a|a56f0572] (02+09/11) Accurately ripped

Track Peak [ CRC32 ] [W/O NULL] [ LOG ]
-- 99,2 [EAFF480D] [52E85C9A] CRC32
01 99,2 7C918B2 [F0CF9479]
02 98,2 [CCADF390] [45BE94F8]
03 98,1 [EE96224C] 98D1A7C
04 96,5 [0992287F] [C14DF0DD]
05 99,1 [3C9FC0FC] [A9432543]
06 99,1 [D421ACA5] [A5976306]
07 97,8 [A0EA8435] [3F14CE1A]
08 99,2 [6C4BD1BB] [EC99EEA5]
09 99,1 [66A9807F] [DE70CD54]



http://i67.fastpic.ru/big/2015/0128/a9/758341d1b5bd82d2366b6a5086fedba9.jpg

CD03: Jethro Tull - Stormwatch (1979)
EAC | Flac(Image) + Cue + Log | ~ 285 Mb
Chrysalis, 2564628533-3 | Scans(png) -> 308 Mb
Progressive Rock

"Stormwatch marked the end of an era in Jethro Tull's history, as the last album on which longtime members Barriemore Barlow, John Evan, and David Palmer participated, and the final appearance of bassist John Glascock, who played on three of the cuts (Anderson supplied the bass elsewhere) and died following open-heart surgery a few weeks after its release. Anderson's inspiration seemed to be running out here, his writing covering environmental concerns ("North Sea Oil") and very scattershot social topical criticism ("Dark Ages"). The fire is still there in some of the hard rock passages, especially on "Dark Ages," but most of the songs generally lack the craftsmanship and inspiration of such albums as Minstrel in the Gallery or Heavy Horses, much less Aqualung. Just when "Something's on the Move" seems like it could be the most tuneless track in Tull's history, "Old Ghosts" and "Dun Ringill" follow it with even less memorable melodic material. The latter, in particular, proved that Anderson's well of folk-inspired tunes was also running dry, apart from the instrumental "Warm Sporran."


by Bruce Eder, AMG
"

Tracklist:

01. North Sea Oil 03:12
02. Orion 03:58
03. Home 02:46
04. Dark Ages 09:13
05. Warm Sporran 03:33
06. Something's On The Move 04:27
07. Old Ghosts 04:23
08. Dun Ringill 02:41
09. Flying Dutchman 07:46
10. Elegy 03:38

Exact Audio Copy V1.0 beta 3 from 29. August 2011

EAC extraction logfile from 18. January 2015, 19:24

Jethro Tull / Stormwatch

Used drive : PLEXTOR BD-R PX-B950SA Adapter: 6 ID: 0

Read mode : Secure
Utilize accurate stream : Yes
Defeat audio cache : Yes
Make use of C2 pointers : No

Read offset correction : 6
Overread into Lead-In and Lead-Out : No
Fill up missing offset samples with silence : Yes
Delete leading and trailing silent blocks : No
Null samples used in CRC calculations : Yes
Used interface : Native Win32 interface for Win NT & 2000

Used output format : Internal WAV Routines
Sample format : 44.100 Hz; 16 Bit; Stereo

TOC of the extracted CD Track | Start | Length | Start sector | End sector
-----------
1 | 0:00.00 | 3:12.05 | 0 | 14404
2 | 3:12.05 | 3:58.20 | 14405 | 32274
3 | 7:10.25 | 2:46.10 | 32275 | 44734
4 | 9:56.35 | 9:13.65 | 44735 | 86274
5 | 19:10.25 | 3:33.37 | 86275 | 102286
6 | 22:43.62 | 4:27.33 | 102287 | 122344
7 | 27:11.20 | 4:23.30 | 122345 | 142099
8 | 31:34.50 | 2:41.57 | 142100 | 154231
9 | 34:16.32 | 7:46.08 | 154232 | 189189
10 | 42:02.40 | 3:38.37 | 189190 | 205576

Range status and errors

Selected range Filename C:\Users\Meijin\Desktop\ALLexxess\Jethro Tull\2014 Original Album Series (5CD Box Set Chrysalis Records)\1979 Stormwatch\Jethro Tull - Stormwatch.wav Peak level 99.2 %
Extraction speed 3.0 X
Range quality 99.9 %
Test CRC 488635E1
Copy CRC 488635E1
Copy OK

No errors occurred


AccurateRip summary

Track 1 accurately ripped (confidence 9) F328078 (AR v2)
Track 2 accurately ripped (confidence 9) [119AB607] (AR v2)
Track 3 accurately ripped (confidence 9) [5A01D70D] (AR v2)
Track 4 accurately ripped (confidence 9) [8B4BD1B6] (AR v2)
Track 5 accurately ripped (confidence 9) [E19D842B] (AR v2)
Track 6 accurately ripped (confidence 9) [3A9720CC] (AR v2)
Track 7 accurately ripped (confidence 9) [A554D33D] (AR v2)
Track 8 accurately ripped (confidence 9) [AF8BF4EA] (AR v2)
Track 9 accurately ripped (confidence 9) [4E28C7E2] (AR v2)
Track 10 accurately ripped (confidence 9) [FC264B6C] (AR v2)

All tracks accurately ripped

End of status report

foobar2000 1.2.9 / Dynamic Range Meter 1.1.1
log date: 2015-01-24 19:31:47

--
Analyzed: Jethro Tull / Stormwatch
--

DR Peak RMS Duration Track
--
DR9 -0.08 dB -11.22 dB 3:12 01-North Sea Oil
DR10 -0.07 dB -12.75 dB 3:58 02-Orion
DR10 -0.14 dB -13.50 dB 2:46 03-Home
DR10 -0.07 dB -12.75 dB 9:14 04-Dark Ages
DR10 -0.07 dB -12.80 dB 3:33 05-Warm Sporran
DR10 -0.08 dB -11.70 dB 4:27 06-Something's On The Move
DR10 -0.07 dB -12.69 dB 4:23 07-Old Ghosts
DR12 -2.17 dB -18.44 dB 2:42 08-Dun Ringill
DR11 -0.15 dB -14.76 dB 7:46 09-Flying Dutchman
DR11 -0.49 dB -14.73 dB 3:38 10-Elegy
--

Number of tracks: 10
Official DR value: DR10

Samplerate: 44100 Hz
Channels: 2
Bits per sample: 16
Bitrate: 845 kbps
Codec: FLAC

[CUETools log; Date: 24.01.2015 19:31:51; Version: 2.1.4]
[CTDB TOCID: c8lHx937oa7W7izGQc4DWAATXkg-] found.
Track | CTDB Status
1 | (13/13) Accurately ripped
2 | (13/13) Accurately ripped
3 | (13/13) Accurately ripped
4 | (13/13) Accurately ripped
5 | (13/13) Accurately ripped
6 | (13/13) Accurately ripped
7 | (13/13) Accurately ripped
8 | (13/13) Accurately ripped
9 | (13/13) Accurately ripped
10 | (13/13) Accurately ripped
[AccurateRip ID: 0010af2d-00878fff-880ab50a] found.
Track [ CRC | V2 ] Status
01 [3082b3c1|bf328078] (02+09/11) Accurately ripped
02 [975d7989|119ab607] (02+09/11) Accurately ripped
03 [8b77847d|5a01d70d] (02+09/11) Accurately ripped
04 [3af75b92|8b4bd1b6] (02+09/11) Accurately ripped
05 [da32e3c0|e19d842b] (02+09/11) Accurately ripped
06 [978d3c81|3a9720cc] (02+09/11) Accurately ripped
07 [91986d21|a554d33d] (02+09/11) Accurately ripped
08 [45a71550|af8bf4ea] (02+09/11) Accurately ripped
09 [e75275cc|4e28c7e2] (02+09/11) Accurately ripped
10 [595fa346|fc264b6c] (02+09/11) Accurately ripped

Track Peak [ CRC32 ] [W/O NULL] [ LOG ]
-- 99,2 [488635E1] 8C968ED CRC32
01 99,1 [F24065EC] [3551592F]
02 99,1 [F7207211] [D0B0C3C6]
03 98,4 [F69B37A6] [2F462CD8]
04 99,2 [9D4941FD] [3DA74688]
05 99,2 [3F3F90F9] [AFBCE6D0]
06 99,1 [9ECB636C] [9C11B82E]
07 99,2 [28D8552B] [AC210493]
08 77,9 [E7FC34A3] 316581D
09 98,2 [2EE4FCBB] [839A544D]
10 94,4 [A6F19928] [ADAEB94A]



http://i59.fastpic.ru/big/2015/0128/08/beb2971127d4b71338d3096b777dd908.jpg

CD04: Jethro Tull - A (1980)
EAC | Flac(Image) + Cue + Log | ~ 269 Mb
Chrysalis, 2564628533-4 | Scans(png) -> 308 Mb
Progressive Rock

"Gone are the longtime Anderson images of the vagabond/sage (the group is clad in white jumpsuits on the cover) -- also gone are the historical immersion of their music and anything resembling Dickensian, much less Elizabethan sensibilities. And nearly gone was Jethro Tull itself, for A started life as an Ian Anderson solo project but ended up as a Jethro Tull release, probably for commercial reasons. The difference is probably too subtle for most people to comprehend anyway. It is more reflective than Tull's usual work, but lacks the sudden, loud hard rock explosions that punctuate most of the group's albums. The death of bassist John Glascock in late 1979, and the departure of Anderson's longtime friend John Evans after the release of Stormwatch, as well as the exit of arranger/keyboard player David Palmer, led to some major lineup shifts; Fairport Convention's Dave Pegg's taking over Glascock's spot and the addition of Eddie Jobson, ex-Roxy Music/King Crimson violinist/keyboardman all seem to have removed some of Anderson's impetus, at least for a time, for keeping the group going in the studio. What finally emerged is the first Tull record not to feature Anderson's acoustic guitar, yet it also has a more balanced sound than any of their prior records. Jobson's arrangements are leaner and more muscular than Palmer's, giving the music a stripped-down sound, a sort of hard folk-rock (reminiscent of Steeleye Span's All Around My Hat), augmented by synthesizer and electric violin; this somewhat updated Anderson's music and moved him into the art rock category. Released in the midst of the punk/new wave boom in the United States, it didn't do too much for anyone's career, although it probably maintained Anderson's credibility better than any traditional Tull album would have.


by Bruce Eder, AMG
"

Tracklist:

01. Crossfire 03:55
02. Fylingdale Flyer 04:36
03. Working John; Working Joe 05:04
04. Black Sunday 06:38
05. Protect And Survive 03:37
06. Batteries Not Included 03:53
07. Uniform 03:34
08. 4.W.D. (Low Ratio) 03:43
09. The Pine Marten's Jig 03:28
10. And Further On 04:21

Exact Audio Copy V1.0 beta 3 from 29. August 2011

EAC extraction logfile from 18. January 2015, 11:31

Jethro Tull / A

Used drive : PLEXTOR BD-R PX-B950SA Adapter: 6 ID: 0

Read mode : Secure
Utilize accurate stream : Yes
Defeat audio cache : Yes
Make use of C2 pointers : No

Read offset correction : 6
Overread into Lead-In and Lead-Out : No
Fill up missing offset samples with silence : Yes
Delete leading and trailing silent blocks : No
Null samples used in CRC calculations : Yes
Used interface : Native Win32 interface for Win NT & 2000

Used output format : Internal WAV Routines
Sample format : 44.100 Hz; 16 Bit; Stereo

TOC of the extracted CD Track | Start | Length | Start sector | End sector
-----------
1 | 0:00.00 | 3:55.22 | 0 | 17646
2 | 3:55.22 | 4:36.25 | 17647 | 38371
3 | 8:31.47 | 5:04.45 | 38372 | 61216
4 | 13:36.17 | 6:38.63 | 61217 | 91129
5 | 20:15.05 | 3:37.12 | 91130 | 107416
6 | 23:52.17 | 3:53.18 | 107417 | 124909
7 | 27:45.35 | 3:34.12 | 124910 | 140971
8 | 31:19.47 | 3:43.13 | 140972 | 157709
9 | 35:02.60 | 3:28.17 | 157710 | 173326
10 | 38:31.02 | 4:21.35 | 173327 | 192936

Range status and errors

Selected range Filename C:\Users\Meijin\Desktop\ALLexxess\Jethro Tull\2014 Original Album Series (5CD Box Set Chrysalis Records)\1980 A\Jethro Tull - A.wav Peak level 99.1 %
Extraction speed 6.8 X
Range quality 100.0 %
Test CRC 9752FD5F
Copy CRC 9752FD5F
Copy OK

No errors occurred


AccurateRip summary

Track 1 accurately ripped (confidence 9) [A9B32DF0] (AR v2)
Track 2 accurately ripped (confidence 9) [DDE4E56A] (AR v2)
Track 3 accurately ripped (confidence 9) [0E24F47F] (AR v2)
Track 4 accurately ripped (confidence 9) [5713A63D] (AR v2)
Track 5 accurately ripped (confidence 9) [2E8A8D15] (AR v2)
Track 6 accurately ripped (confidence 9) D7684BA (AR v2)
Track 7 accurately ripped (confidence 9) [074F10BE] (AR v2)
Track 8 accurately ripped (confidence 9) [D4E31BAD] (AR v2)
Track 9 accurately ripped (confidence 9) D22C5DE (AR v2)
Track 10 accurately ripped (confidence 9) [5B649FB0] (AR v2)

All tracks accurately ripped

End of status report

foobar2000 1.2.9 / Dynamic Range Meter 1.1.1
log date: 2015-01-24 19:32:06

--
Analyzed: Jethro Tull / A
--

DR Peak RMS Duration Track
--
DR12 -0.08 dB -14.55 dB 3:55 01-Crossfire
DR12 -0.07 dB -14.63 dB 4:36 02-Fylingdale Flyer
DR12 -0.07 dB -14.35 dB 5:05 03-Working John, Working Joe
DR13 -0.08 dB -15.80 dB 6:39 04-Black Sunday
DR14 -0.52 dB -16.82 dB 3:37 05-Protect And Survive
DR13 -0.08 dB -14.59 dB 3:53 06-Batteries Not Included
DR13 -1.00 dB -16.96 dB 3:34 07-Uniform
DR13 -0.43 dB -16.72 dB 3:43 08-4.W.D. (Low Ratio)
DR14 -0.63 dB -17.00 dB 3:28 09-The Pine Marten's Jig
DR13 -0.74 dB -18.71 dB 4:21 10-And Further On
--

Number of tracks: 10
Official DR value: DR13

Samplerate: 44100 Hz
Channels: 2
Bits per sample: 16
Bitrate: 850 kbps
Codec: FLAC

[CUETools log; Date: 24.01.2015 19:32:29; Version: 2.1.4]
[CTDB TOCID: o7Q.PQsI9Dy0vjX4l7dH6Rjm_Zg-] found.
Track | CTDB Status
1 | (36/42) Accurately ripped
2 | (36/42) Accurately ripped
3 | (36/42) Accurately ripped
4 | (36/42) Accurately ripped
5 | (37/42) Accurately ripped
6 | (36/42) Accurately ripped
7 | (36/42) Accurately ripped
8 | (36/42) Accurately ripped
9 | (36/42) Accurately ripped
10 | (31/42) Accurately ripped
[AccurateRip ID: 0010dee7-0085dbc0-750a0c0a] found.
Track [ CRC | V2 ] Status
01 [00ce5114|a9b32df0] (02+09/83) Accurately ripped
02 [fba7100a|dde4e56a] (02+09/82) Accurately ripped
03 [0805d962|0e24f47f] (02+09/82) Accurately ripped
04 [53111bff|5713a63d] (02+09/82) Accurately ripped
05 [a3e203eb|2e8a8d15] (02+09/82) Accurately ripped
06 f1c168a|bd7684ba (02+09/82) Accurately ripped
07 [c6c9106c|074f10be] (02+09/82) Accurately ripped
08 [1d030eba|d4e31bad] (02+09/82) Accurately ripped
09 [0ab483eb|bd22c5de] (02+09/82) Accurately ripped
10 [03bef25c|5b649fb0] (02+09/83) Accurately ripped
Offsetted by -6:
01 [f6cfec9c] (08/83) Accurately ripped
02 [ebb5baf3] (08/82) Accurately ripped
03 [6749a4fb] (08/82) Accurately ripped
04 [57034f68] (08/82) Accurately ripped
05 [190f6096] (08/82) Accurately ripped
06 [36102e78] (08/82) Accurately ripped
07 [4e5b9c49] (08/82) Accurately ripped
08 [6fb5b362] (08/82) Accurately ripped
09 [9a7e3dc4] (08/82) Accurately ripped
10 37033a0 (08/83) Accurately ripped
Offsetted by 9:
01 [3fd6651b] (08/83) Accurately ripped
02 [fc1a32a5] (08/82) Accurately ripped
03 76b1c2b (08/82) Accurately ripped
04 [5c44baf3] (08/82) Accurately ripped
05 [4d2755a6] (08/82) Accurately ripped
06 [2634f276] (08/82) Accurately ripped
07 [37a95b03] (08/82) Accurately ripped
08 [d078eb51] (08/82) Accurately ripped
09 [1398d5a4] (08/82) Accurately ripped
10 [7c449078] (08/83) Accurately ripped
Offsetted by 12:
01 [724a6cf4] (20/83) Accurately ripped
02 [617477a0] (19/82) Accurately ripped
03 [0e7969aa] (19/82) Accurately ripped
04 [25ea79f7] (19/82) Accurately ripped
05 [42f8545a] (19/82) Accurately ripped
06 53a1977 (19/82) Accurately ripped
07 [81f386f8] (19/82) Accurately ripped
08 [e5346c93] (19/82) Accurately ripped
09 [16613c1e] (19/82) Accurately ripped
10 [a4756fd6] (19/83) Accurately ripped
Offsetted by 590:
01 [04923539] (03/83) Accurately ripped
02 [de464221] (03/82) Accurately ripped
03 [821c74e0] (03/82) Accurately ripped
04 [0b0c7ccf] (03/82) Accurately ripped
05 [5c172f21] (03/82) Accurately ripped
06 [619dbb1f] (03/82) Accurately ripped
07 [e1799be3] (03/82) Accurately ripped
08 [d15c5b05] (03/82) Accurately ripped
09 [a6978377] (03/82) Accurately ripped
10 [65004dc3] (03/83) Accurately ripped
Offsetted by -750:
01 [522b6b65] (02/83) Accurately ripped
02 [08cdc275] (02/82) Accurately ripped
03 [527b2650] (02/82) Accurately ripped
04 [8ccee3ea] (02/82) Accurately ripped
05 [f6b70e60] (02/82) Accurately ripped
06 95a16a2 (02/82) Accurately ripped
07 [2ac3ccd0] (02/82) Accurately ripped
08 [d36863dd] (02/82) Accurately ripped
09 [895ff2f1] (02/82) Accurately ripped
10 44cf6f3 (00/83) No match (V2 was not tested)

Track Peak [ CRC32 ] [W/O NULL] [ LOG ]
-- 99,1 [9752FD5F] [20FD242E] CRC32
01 99,0 [430534C7] [E42AF3F6]
02 99,1 [65E2E150] [2B3D952F]
03 99,1 [18F132C2] [08C6D03B]
04 99,0 [89B20CB2] [E2AC799F]
05 94,2 [392DF20F] [A72BB58C]
06 99,0 [4D1A75FE] [DF8826FD]
07 89,1 [289061BE] [5D85073B]
08 95,2 [07965AA4] [0C70C42D]
09 92,9 [9BFD7470] [DD39E594]
10 91,8 [27762B87] [93E880E1]



http://i65.fastpic.ru/big/2015/0128/f9/3740deed3875ba6fc8d6a6a99ec6bef9.jpg

CD05: Jethro Tull - The Broadsword And The Beast (1982)
EAC | Flac(Image) + Cue + Log | ~ 255 Mb
Chrysalis, 2564628533-5 | Scans(png) -> 308 Mb
Progressive Rock

"The cover of this first actual Jethro Tull album since 1979's Stormwatch depicts Ian Anderson as an elf-warrior, with wings and a sword, and a ship with a stylized Norse dragon's head. Anyone expecting a fantasy or heavy metal album was due for a disappointment, however, for most of the songs that have any identifiable references are about topical politics more than anything else. Martin Barre's electric guitars share the spotlight for the first time with Peter-John Vettesse's synthesizers, and Anderson is still playing lilting tunes on his flute and acoustic guitar. Tull's electric sound, this time in the hands of ex-Yardbird Paul Samwell-Smith, is smoother, less heavy, and more thinly textured than their past work, and there are times -- most especially on "Flying Colours" -- where they could almost pass for the latter-day Moody Blues, something the band never would have permitted in earlier days (though if the Moodies could rock this hard and fast, it would be an achievement -- for them!). "Broadsword" and "Pussy Willow" are easily the two best songs here, and not coincidentally the two that owe the most to traditional folk music in their structure. Most of the rest is little better than tuneless drivel.


by Bruce Eder, AMG
"

Tracklist:

01. Beastie 04:00
02. Clasp 04:18
03. Fallen On Hard Times 03:13
04. Flying Colours 04:39
05. Slow Marching Band 03:39
06. Broadsword 05:03
07. Pussy Willow 03:55
08. Watching Me, Watching You 03:41
09. Seal Driver 05:10
10. Cheerio 01:16

Exact Audio Copy V1.0 beta 3 from 29. August 2011

EAC extraction logfile from 18. January 2015, 10:59

Jethro Tull / The Broadsword And The Beast

Used drive : PLEXTOR BD-R PX-B950SA Adapter: 6 ID: 0

Read mode : Secure
Utilize accurate stream : Yes
Defeat audio cache : Yes
Make use of C2 pointers : No

Read offset correction : 6
Overread into Lead-In and Lead-Out : No
Fill up missing offset samples with silence : Yes
Delete leading and trailing silent blocks : No
Null samples used in CRC calculations : Yes
Used interface : Native Win32 interface for Win NT & 2000

Used output format : Internal WAV Routines
Sample format : 44.100 Hz; 16 Bit; Stereo

TOC of the extracted CD Track | Start | Length | Start sector | End sector
-----------
1 | 0:00.00 | 4:00.07 | 0 | 18006
2 | 4:00.07 | 4:18.20 | 18007 | 37376
3 | 8:18.27 | 3:13.40 | 37377 | 51891
4 | 11:31.67 | 4:39.53 | 51892 | 72869
5 | 16:11.45 | 3:39.10 | 72870 | 89304
6 | 19:50.55 | 5:03.62 | 89305 | 112091
7 | 24:54.42 | 3:55.13 | 112092 | 129729
8 | 28:49.55 | 3:41.00 | 129730 | 146304
9 | 32:30.55 | 5:10.60 | 146305 | 169614
10 | 37:41.40 | 1:16.17 | 169615 | 175331

Range status and errors

Selected range Filename C:\Users\Meijin\Desktop\ALLexxess\Jethro Tull\2014 Original Album Series (5CD Box Set Chrysalis Records)\1982 The Broadsword And The Beast\Jethro Tull - The Broadsword And The Beast.wav Peak level 99.2 %
Extraction speed 6.6 X
Range quality 100.0 %
Test CRC 5EA49985
Copy CRC 5EA49985
Copy OK

No errors occurred


AccurateRip summary

Track 1 accurately ripped (confidence 9) [C44AE6C9] (AR v2)
Track 2 accurately ripped (confidence 9) [8EE4EB04] (AR v2)
Track 3 accurately ripped (confidence 9) 8B8E619 (AR v2)
Track 4 accurately ripped (confidence 9) [012E53E4] (AR v2)
Track 5 accurately ripped (confidence 9) [5DAD5A18] (AR v2)
Track 6 accurately ripped (confidence 9) [0A9BCD13] (AR v2)
Track 7 accurately ripped (confidence 9) [49172A29] (AR v2)
Track 8 accurately ripped (confidence 9) [55D437D4] (AR v2)
Track 9 accurately ripped (confidence 9) [5FC5426C] (AR v2)
Track 10 accurately ripped (confidence 9) [230E5886] (AR v2)

All tracks accurately ripped

End of status report

foobar2000 1.2.9 / Dynamic Range Meter 1.1.1
log date: 2015-01-24 19:32:42

--
Analyzed: Jethro Tull / The Broadsword And The Beast
--

DR Peak RMS Duration Track
--
DR11 -0.07 dB -12.86 dB 4:00 01-Beastie
DR11 -0.07 dB -14.17 dB 4:18 02-Clasp
DR11 -0.07 dB -14.01 dB 3:14 03-Fallen On Hard Times
DR11 -0.07 dB -13.98 dB 4:40 04-Flying Colours
DR10 -0.08 dB -13.47 dB 3:39 05-Slow Marching Band
DR9 -0.07 dB -11.42 dB 5:04 06-Broadsword
DR11 -0.07 dB -14.99 dB 3:55 07-Pussy Willow
DR13 -0.09 dB -14.36 dB 3:41 08-Watching Me, Watching You
DR11 -0.08 dB -14.11 dB 5:11 09-Seal Driver
DR11 -5.73 dB -23.96 dB 1:16 10-Cheerio
--

Number of tracks: 10
Official DR value: DR11

Samplerate: 44100 Hz
Channels: 2
Bits per sample: 16
Bitrate: 829 kbps
Codec: FLAC

[CUETools log; Date: 24.01.2015 19:32:44; Version: 2.1.4]
[CTDB TOCID: rVyMibM_DsgrNb9Uh7nJBH2LaNE-] found.
Track | CTDB Status
1 | (13/13) Accurately ripped
2 | (13/13) Accurately ripped
3 | (13/13) Accurately ripped
4 | (13/13) Accurately ripped
5 | (13/13) Accurately ripped
6 | (13/13) Accurately ripped
7 | (13/13) Accurately ripped
8 | (13/13) Accurately ripped
9 | (13/13) Accurately ripped
10 | (13/13) Accurately ripped
[AccurateRip ID: 000f4c1d-007a5fd5-7f09210a] found.
Track [ CRC | V2 ] Status
01 [a2b98c5c|c44ae6c9] (02+09/11) Accurately ripped
02 [e05f953f|8ee4eb04] (02+09/11) Accurately ripped
03 [f1a018f6|b8b8e619] (02+09/11) Accurately ripped
04 [3d4ea793|012e53e4] (02+09/11) Accurately ripped
05 [22d482b2|5dad5a18] (02+09/11) Accurately ripped
06 [8f3e6f0b|0a9bcd13] (02+09/11) Accurately ripped
07 [85deaf25|49172a29] (02+09/11) Accurately ripped
08 [0d87c80f|55d437d4] (02+09/11) Accurately ripped
09 [3ce884c3|5fc5426c] (02+09/11) Accurately ripped
10 [ccd808cf|230e5886] (02+09/11) Accurately ripped

Track Peak [ CRC32 ] [W/O NULL] [ LOG ]
-- 99,2 [5EA49985] [29458528] CRC32
01 99,1 3AD47EE [D47F6984]
02 99,2 [3A99D93D] [76711E6A]
03 99,2 [D808E25C] [38C2D801]
04 99,1 [03A3CE92] [6AED8165]
05 99,1 [E5AE410B] [5732EC4B]
06 99,2 [40F464FC] [D1EFA656]
07 99,1 [97F4276D] [F5F83FCE]
08 98,9 [86A66BC0] [A352366A]
09 99,1 [E6228FC7] FC0810D
10 51,6 1F9A59D [E18434DC]

http://i58.fastpic.ru/big/2015/0128/4a/72cef012dbd7979f38c1b06eb4060b4a.jpg

All thanks go to ALLexxess
DOWNLOAD LINKS:
Buy Premium To Support Me & Get Resumable Support & Max Speed


Links are Interchangeable - No Password - Single Extraction

Original Album Series: Jethro Tull (2014) [5CD Box Set] Fast Download


Ad2

 
 
 
Dear visitor, you went to the site as an unregistered user. We encourage you to register or enter the site under your name.
 
   
 
 (Votes #: 0)