2013Zone For Latest Downloads

 
     
 
Legal Downloads » Music » Iron Maiden - A Real Dead One (1993)
Menu
Home Applications
Games Movies
Music TV Shows
Torrents Graphics

Sitemap

RSS
 
Advanced Search
Last News
Site Info
Top Contributors:
  1    supper88 32766
  2    admin 32693
  3    Whisky 10080
  4    Shark_ 8911
  5    creativelivenew 8706
  6    whathesupa 2799
  7    candymypost 840
  8    hvnteam 629
  9    vuong87 3


Articles:
  This Hour: 0
  Today: 0
  This Month: 30
  All Time: 515561


Torrents:
  Today: 0
  Yesterday: 0
  All Time: 156684


Membership:
  Registered Today :0
  This Hour:0
  This Month:0
  Total:14
  Banned:1

{online}
{inform_torrent}
Friend:
We Recomend
Trend
Trend
Ad1

Search In Site

Music : Iron Maiden - A Real Dead One (1993)
 
http://i63.fastpic.ru/big/2015/0128/c2/6b792caab6874bcb3c11c367008ebec2.jpg

Iron Maiden - A Real Dead One (1993)
EAC | Flac(Image) + Cue + Log & MP3 CBR 320Kbps
Castle, 113-2 | ~ 442 or 141 Mb | Scans(600dpi, jpg) -> 71 Mb
Heavy Metal

"A Real Dead One is a live album by the British heavy metal band Iron Maiden, recorded in 1992/93 at concerts across Europe, and released on 25 October 1993. This album features songs from the very beginning of the band's career (1975) through the Powerslave era (1984), while counterpart A Real Live One only contains songs from the post-Powerslave albums..."

Iron Maiden - A Real Dead One (1993):

http://i67.fastpic.ru/big/2015/0128/1c/d5a109b56851c87b3a592df885e86b1c.jpg

Tracklist:

01. The Number of The Beast (04:54)
02. The Trooper (03:55)
03. Prowler (04:16)
04. Transylvania (04:26)
05. Remember Tomorrow (05:53)
06. Where Eagles Dare (04:49)
07. Sanctuary (04:53)
08. Running Free (03:49)
09. Run To The Hills (03:58)
10. 2 Minutes To Midnight (05:37)
11. Iron Maiden (05:25)
12. Hallowed Be Thy Name (07:52)

Exact Audio Copy V1.0 beta 4 from 7. December 2014

EAC extraction logfile from 22. December 2014, 19:20

Iron Maiden / A Real Dead One

Used drive : PLEXTOR CD-R PX-240A Adapter: 0 ID: 0

Read mode : Secure
Utilize accurate stream : Yes
Defeat audio cache : Yes
Make use of C2 pointers : No

Read offset correction : 6
Overread into Lead-In and Lead-Out : No
Fill up missing offset samples with silence : Yes
Delete leading and trailing silent blocks : No
Null samples used in CRC calculations : Yes
Used interface : Installed external ASPI interface

Used output format : Internal WAV Routines
Sample format : 44.100 Hz; 16 Bit; Stereo

TOC of the extracted CD Track | Start | Length | Start sector | End sector
-----------
1 | 0:00.00 | 4:54.00 | 0 | 22049
2 | 4:54.00 | 3:55.25 | 22050 | 39699
3 | 8:49.25 | 4:15.50 | 39700 | 58874
4 | 13:05.00 | 4:25.67 | 58875 | 78816
5 | 17:30.67 | 5:52.55 | 78817 | 105271
6 | 23:23.47 | 4:49.20 | 105272 | 126966
7 | 28:12.67 | 4:53.15 | 126967 | 148956
8 | 33:06.07 | 3:48.65 | 148957 | 166121
9 | 36:54.72 | 3:57.43 | 166122 | 183939
10 | 40:52.40 | 5:37.32 | 183940 | 209246
11 | 46:29.72 | 5:24.40 | 209247 | 233586
12 | 51:54.37 | 7:51.63 | 233587 | 268974

Range status and errors

Selected range Filename R:\hexonut\Seeding\Iron Maiden\1993-A Real Dead One\A Real Dead One (Castle 113-2).wav Peak level 99.5 %
Extraction speed 7.4 X
Range quality 100.0 %
Test CRC 32AF427B
Copy CRC 32AF427B
Copy OK

No errors occurred


AccurateRip summary

Track 1 accurately ripped (confidence 2) [FE663031] (AR v2)
Track 2 accurately ripped (confidence 2) [7A932AA6] (AR v2)
Track 3 accurately ripped (confidence 2) [740F3E2A] (AR v2)
Track 4 accurately ripped (confidence 2) [39E4C2DC] (AR v2)
Track 5 accurately ripped (confidence 2) [F2A66F32] (AR v2)
Track 6 accurately ripped (confidence 2) [9E6AA112] (AR v2)
Track 7 accurately ripped (confidence 2) [E8465738] (AR v2)
Track 8 accurately ripped (confidence 2) [289BCC3D] (AR v2)
Track 9 accurately ripped (confidence 2) [7FD4F373] (AR v2)
Track 10 accurately ripped (confidence 2) [07AA3F45] (AR v2)
Track 11 accurately ripped (confidence 2) [3444BF62] (AR v2)
Track 12 accurately ripped (confidence 2) [A3C65458] (AR v2)

All tracks accurately ripped

End of status report

Exact Audio Copy V1.0 beta 4 from 7. December 2014

EAC extraction logfile from 22. December 2014, 19:20

Iron Maiden / A Real Dead One

Used drive : PLEXTOR CD-R PX-240A Adapter: 0 ID: 0

Read mode : Secure
Utilize accurate stream : Yes
Defeat audio cache : Yes
Make use of C2 pointers : No

Read offset correction : 6
Overread into Lead-In and Lead-Out : No
Fill up missing offset samples with silence : Yes
Delete leading and trailing silent blocks : No
Null samples used in CRC calculations : Yes
Used interface : Installed external ASPI interface

Used output format : Internal WAV Routines
Sample format : 44.100 Hz; 16 Bit; Stereo

TOC of the extracted CD Track | Start | Length | Start sector | End sector
-----------
1 | 0:00.00 | 4:54.00 | 0 | 22049
2 | 4:54.00 | 3:55.25 | 22050 | 39699
3 | 8:49.25 | 4:15.50 | 39700 | 58874
4 | 13:05.00 | 4:25.67 | 58875 | 78816
5 | 17:30.67 | 5:52.55 | 78817 | 105271
6 | 23:23.47 | 4:49.20 | 105272 | 126966
7 | 28:12.67 | 4:53.15 | 126967 | 148956
8 | 33:06.07 | 3:48.65 | 148957 | 166121
9 | 36:54.72 | 3:57.43 | 166122 | 183939
10 | 40:52.40 | 5:37.32 | 183940 | 209246
11 | 46:29.72 | 5:24.40 | 209247 | 233586
12 | 51:54.37 | 7:51.63 | 233587 | 268974

Range status and errors

Selected range Filename R:\hexonut\Seeding\Iron Maiden\1993-A Real Dead One\A Real Dead One (Castle 113-2).wav Peak level 99.5 %
Extraction speed 7.4 X
Range quality 100.0 %
Test CRC 32AF427B
Copy CRC 32AF427B
Copy OK

No errors occurred


AccurateRip summary

Track 1 accurately ripped (confidence 2) [FE663031] (AR v2)
Track 2 accurately ripped (confidence 2) [7A932AA6] (AR v2)
Track 3 accurately ripped (confidence 2) [740F3E2A] (AR v2)
Track 4 accurately ripped (confidence 2) [39E4C2DC] (AR v2)
Track 5 accurately ripped (confidence 2) [F2A66F32] (AR v2)
Track 6 accurately ripped (confidence 2) [9E6AA112] (AR v2)
Track 7 accurately ripped (confidence 2) [E8465738] (AR v2)
Track 8 accurately ripped (confidence 2) [289BCC3D] (AR v2)
Track 9 accurately ripped (confidence 2) [7FD4F373] (AR v2)
Track 10 accurately ripped (confidence 2) [07AA3F45] (AR v2)
Track 11 accurately ripped (confidence 2) [3444BF62] (AR v2)
Track 12 accurately ripped (confidence 2) [A3C65458] (AR v2)

All tracks accurately ripped

End of status report

[CUETools log; Date: 24.01.2015 16:28:41; Version: 2.1.4]
[CTDB TOCID: jcqTVD8lD0laQScKskqIrtTiv6M-] found.
Track | CTDB Status
1 | (14/14) Accurately ripped
2 | (13/14) Accurately ripped
3 | (13/14) Accurately ripped
4 | (14/14) Accurately ripped
5 | (13/14) Accurately ripped
6 | (14/14) Accurately ripped
7 | (12/14) Accurately ripped
8 | (11/14) Accurately ripped
9 | (11/14) Accurately ripped
10 | (11/14) Accurately ripped
11 | (13/14) Accurately ripped
12 | (11/14) Accurately ripped
[AccurateRip ID: 0019100d-00eb9b89-aa0e020c] found.
Track [ CRC | V2 ] Status
01 [76ea4347|fe663031] (03+02/44) Accurately ripped
02 [76fa162e|7a932aa6] (03+02/44) Accurately ripped
03 [c374d6e3|740f3e2a] (03+02/44) Accurately ripped
04 [244deda0|39e4c2dc] (03+02/44) Accurately ripped
05 [f8ae453f|f2a66f32] (03+02/44) Accurately ripped
06 [0efff5ef|9e6aa112] (03+02/43) Accurately ripped
07 [d0d49416|e8465738] (03+02/43) Accurately ripped
08 [c0c098d2|289bcc3d] (03+02/42) Accurately ripped
09 [8ed55847|7fd4f373] (02+02/42) Accurately ripped
10 [c4d81324|07aa3f45] (00+02/39) Accurately ripped
11 [e6efeaf3|3444bf62] (03+02/43) Accurately ripped
12 [564f9c6d|a3c65458] (03+02/43) Accurately ripped
Offsetted by -1151:
01 [6593c657] (26/44) Accurately ripped
02 [df9f187e] (26/44) Accurately ripped
03 [4b647309] (26/44) Accurately ripped
04 [d6239bc3] (26/44) Accurately ripped
05 [ebda2bee] (26/44) Accurately ripped
06 [2d25fb70] (26/43) Accurately ripped
07 [81a5dc9f] (26/43) Accurately ripped
08 [321f7bf3] (26/42) Accurately ripped
09 [0c4551be] (26/42) Accurately ripped
10 [30ed861b] (26/39) Accurately ripped
11 [0e7936e4] (25/43) Accurately ripped
12 [ea752a07] (25/43) Accurately ripped

Track Peak [ CRC32 ] [W/O NULL] [ LOG ]
-- 99,5 [32AF427B] [E4D13DC0] CRC32
01 99,3 [E8080756] 8F6F4AB
02 99,5 [D373068C] [38E7A1B3]
03 99,3 [ECCE5F90] [520146C1]
04 98,9 [839636E9] [AADE8683]
05 98,7 886CB90 [3F9C6FF0]
06 98,9 [E32D7E0F] [7117DEC8]
07 99,1 [1EB48E5A] [599EEFB9]
08 98,8 B5D719E [43EC0B1E]
09 99,0 [F857C65A] [8B4D44E4]
10 99,2 [C5180F7F] [427F2DF9]
11 99,3 [12244987] [986577D1]
12 99,5 [8F60C6AC] [CB9590F0]

http://i66.fastpic.ru/big/2015/0128/e5/80a8099ed8aecd1c799286a3fcafbee5.jpg

All thanks go to hexonut
DOWNLOAD LINKS:
Buy Premium To Support Me & Get Resumable Support & Max Speed


Links are Interchangeable - No Password - Single Extraction

Iron Maiden - A Real Dead One (1993) Fast Download


Ad2

 
 
 
Dear visitor, you went to the site as an unregistered user. We encourage you to register or enter the site under your name.
 
   
 
 (Votes #: 0)