2013Zone For Latest Downloads

 
     
 
Legal Downloads » TV Shows » BBC - California Comes to the Whistle Test (2007)
Menu
Home Applications
Games Movies
Music TV Shows
Torrents Graphics

Sitemap

RSS
 
Advanced Search
Last News
Site Info
Top Contributors:
  1    supper88 32766
  2    admin 32671
  3    Whisky 10080
  4    Shark_ 8911
  5    creativelivenew 8706
  6    whathesupa 2799
  7    candymypost 840
  8    hvnteam 629
  9    vuong87 3


Articles:
  This Hour: 0
  Today: 0
  This Month: 58
  All Time: 515616


Torrents:
  Today: 0
  Yesterday: 0
  All Time: 156702


Membership:
  Registered Today :0
  This Hour:0
  This Month:0
  Total:14
  Banned:1

{online}
{inform_torrent}
Friend:
We Recomend
Trend
Trend
Ad1

Search In Site

TV Shows : BBC - California Comes to the Whistle Test (2007)
 

http://i60.fastpic.ru/big/2015/0128/09/8a9da85f116b73fff436209a41283e09.jpg
BBC - California Comes to the Whistle Test (2007)
HDTV | 768x576 | .MP4/AVC @ 1039 Kbps | 59mn 4s | Audio: English AAC 127 kbps, 2 channels | Subs: English | 494 MiB
Genre: Documentary

"A compilation of BBC performances by artists who lived and worked in California in the 1970s. Featuring Jackson Browne, Little Feat, Ry Cooder, Judee Sill, Bonnie Raitt and a rare duet between James Taylor and Carly Simon."

General
Complete name : BBC.California.Comes.to.the.Whistle.Test.mp4
Format : MPEG-4
Format profile : Base Media
Codec ID : isom
File size : 494 MiB
Duration : 59mn 4s
Overall bit rate mode : Variable
Overall bit rate : 1 170 Kbps
Encoded date : UTC 2015-01-25 04:07:44
Tagged date : UTC 2015-01-25 04:07:44

Video
ID : 1
Format : hvc1
Codec ID : hvc1
Duration : 59mn 4s
Bit rate : 1 039 Kbps
Maximum bit rate : 3 334 Kbps
Width : 768 pixels
Height : 576 pixels
Display aspect ratio : 4:3
Frame rate mode : Constant
Frame rate : 25.000 fps
Bits/(Pixel*Frame) : 0.094
Stream size : 439 MiB (89%)
Title : [email protected]
Encoded date : UTC 2015-01-25 03:44:54
Tagged date : UTC 2015-01-25 04:07:58

Audio
ID : 2
Format : AAC
Format/Info : Advanced Audio Codec
Format profile : LC
Codec ID : 40
Duration : 59mn 4s
Bit rate mode : Variable
Bit rate : 127 Kbps
Maximum bit rate : 188 Kbps
Channel(s) : 2 channels
Channel positions : Front: L R
Sampling rate : 48.0 KHz
Compression mode : Lossy
Stream size : 53.7 MiB (11%)
Language : English
Encoded date : UTC 2015-01-24 20:33:32
Tagged date : UTC 2015-01-25 04:07:58

Text
ID : 3
Format : Timed text
Codec ID : tx3g
Duration : 58mn 59s
Bit rate mode : Variable
Bit rate : 48 bps
Stream size : 20.6 KiB (0%)
Language : English
Encoded date : UTC 2015-01-25 04:07:58
Tagged date : UTC 2015-01-25 04:07:58

Screenshots:

http://i58.fastpic.ru/big/2015/0128/32/94dc4f31dba575ec6f6215f380f84e32.jpg

http://i65.fastpic.ru/big/2015/0128/fa/2aa1402ea0d32863746f7b882ca0ecfa.jpg

http://i63.fastpic.ru/big/2015/0128/eb/fab10b8e42dbe051fdb42803f653bbeb.jpg

http://i63.fastpic.ru/big/2015/0128/d2/2e72473be6b5220ff3076ce2464701d2.jpg


DOWNLOAD LINKS:
Buy Premium To Support Me & Get Resumable Support & Max Speed


Links are Interchangeable - No Password - Single Extraction

BBC - California Comes to the Whistle Test (2007) Fast Download


Ad2

 
 
 
Dear visitor, you went to the site as an unregistered user. We encourage you to register or enter the site under your name.
 
   
 
 (Votes #: 0)