2013Zone For Latest Downloads

 
     
 
Legal Downloads » Music » The Jazztet and John Lewis ft. Art Farmer and Benny Golson (1961) {2013 Japan Jazz The Best Series 24-bit Remaster}
Menu
Home Applications
Games Movies
Music TV Shows
Torrents Graphics

Sitemap

RSS
 
Advanced Search
Last News
Site Info
Top Contributors:
  1    supper88 32766
  2    admin 32708
  3    Whisky 10080
  4    Shark_ 8911
  5    creativelivenew 8706
  6    whathesupa 2799
  7    candymypost 840
  8    hvnteam 629
  9    vuong87 3


Articles:
  This Hour: 0
  Today: 17
  This Month: 17
  All Time: 515518


Torrents:
  Today: 0
  Yesterday: 0
  All Time: 156676


Membership:
  Registered Today :0
  This Hour:0
  This Month:0
  Total:14
  Banned:1

{online}
{inform_torrent}
Friend:
Full Download Scripts
Torrent Download
Trend
Trend

Search In Site

Music : The Jazztet and John Lewis ft. Art Farmer and Benny Golson (1961) {2013 Japan Jazz The Best Series 24-bit Remaster}
 

http://i60.fastpic.ru/big/2015/0128/78/cf91000f309cad39f231444919581678.jpg
The Jazztet and John Lewis ft. Art Farmer and Benny Golson (1961) {2013 Japan Jazz The Best Series 24-bit Remaster}
EAC rip (secure mode) | FLAC (tracks)+CUE+LOG -> 269 Mb | MP3 @320 -> 98 Mb
Full Artwork @ 600 dpi (png) -> 113 Mb | 5% repair rar | 24-bit remaster
© 2011, 2013 Argo / Verve / Universal Japan | UCCU-9749
Jazz / Bop / Hard Bop / Cool

"Features 24 bit remastering and limited edition. Release Date: December 04, 2013. The idea of the Jazztet playing arrangements by John Lewis written especially for them is intriguing. According to Gene Lees' liner notes, Art Farmer first approached Lewis about writing something for the sextet, to which the composer replied that he'd rather score an entire record. Even though the Jazztet and Lewis' own group, the Modern Jazz Quartet, are dissimilar in many ways, the marriage is a successful one."

http://i65.fastpic.ru/big/2015/0128/ef/0a230d97f5c0baa4a6737fecd9386fef.jpg


Personnel:
Art Farmer - trumpet
Benny Golson - tenor saxophone
Thomas McIntosh - trombone
Thomas Williams - bass
Cedar Walton - piano
Albert Heath - drums

All music for this album was written and conducted by John Lewis, who appears by arrangement with Atlantic Records.

tracklist:
01 - Bel
02 - Milano
03 - Django
04 - New York 19
05 - 2 Degrees East, 3 Degrees West
06 - Odds Against Tomorrow

Exact Audio Copy V1.0 beta 3 from 29. August 2011

EAC extraction logfile from 23. January 2015, 1:42

The Jazztet and John Lewis / The Jazztet and John Lewis featuring Art Farmer and Benny Golson

Used drive : ATAPI iHAS124 B Adapter: 2 ID: 1

Read mode : Secure
Utilize accurate stream : Yes
Defeat audio cache : Yes
Make use of C2 pointers : No

Read offset correction : 6
Overread into Lead-In and Lead-Out : No
Fill up missing offset samples with silence : Yes
Delete leading and trailing silent blocks : No
Null samples used in CRC calculations : Yes
Used interface : Native Win32 interface for Win NT & 2000
Gap handling : Appended to previous track

Used output format : User Defined Encoder
Selected bitrate : 1024 kBit/s
Quality : High
Add ID3 tag : No
Command line compressor : C:\Program Files (x86)\FLAC Frontend\tools\flac.exe
Additional command line options : -8 -V -T "ARTIST=%artist%" -T "TITLE=%title%" -T "ALBUM=%albumtitle%" -T "DATE=%year%" -T "TRACKNUMBER=%tracknr%" -T "TOTALTRACKS=%numtracks%" -T "GENRE=%genre%" -T "ALBUMARTIST=%albumartist%" -T "ALBUM ARTIST=%albumartist%" -T "COMMENT=EAC Secure Mode, Test & Copy, AccurateRip, FLAC -8" %source%

TOC of the extracted CD Track | Start | Length | Start sector | End sector
-----------
1 | 0:00.00 | 4:10.20 | 0 | 18769
2 | 4:10.20 | 4:53.30 | 18770 | 40774
3 | 9:03.50 | 4:54.22 | 40775 | 62846
4 | 13:57.72 | 7:08.08 | 62847 | 94954
5 | 21:06.05 | 8:40.00 | 94955 | 133954
6 | 29:46.05 | 11:27.20 | 133955 | 185499

Track 1 Filename C:\The Jazztet and John Lewis ft. Art Farmer and Benny Golson (1961) {2013 Japan Jazz The Best Series 24-bit Remaster}\01 - Bel.wav Pre-gap length 0:00:02.00 Peak level 92.6 %
Extraction speed 1.8 X
Track quality 100.0 %
Test CRC 4AC05521
Copy CRC 4AC05521
Accurately ripped (confidence 2) [6D371387] (AR v2)
Copy OK

Track 2 Filename C:\The Jazztet and John Lewis ft. Art Farmer and Benny Golson (1961) {2013 Japan Jazz The Best Series 24-bit Remaster}\02 - Milano.wav Pre-gap length 0:00:04.44 Peak level 96.9 %
Extraction speed 2.1 X
Track quality 100.0 %
Test CRC 4105E99A
Copy CRC 4105E99A
Accurately ripped (confidence 2) [EC8FD060] (AR v2)
Copy OK

Track 3 Filename C:\The Jazztet and John Lewis ft. Art Farmer and Benny Golson (1961) {2013 Japan Jazz The Best Series 24-bit Remaster}\03 - Django.wav Pre-gap length 0:00:04.04 Peak level 99.6 %
Extraction speed 2.3 X
Track quality 100.0 %
Test CRC B54D8EE3
Copy CRC B54D8EE3
Accurately ripped (confidence 2) [9C691172] (AR v2)
Copy OK

Track 4 Filename C:\The Jazztet and John Lewis ft. Art Farmer and Benny Golson (1961) {2013 Japan Jazz The Best Series 24-bit Remaster}\04 - New York 19.wav Pre-gap length 0:00:04.46 Peak level 86.8 %
Extraction speed 2.7 X
Track quality 100.0 %
Test CRC D37FDB47
Copy CRC D37FDB47
Accurately ripped (confidence 2) [F16CBDB3] (AR v2)
Copy OK

Track 5 Filename C:\The Jazztet and John Lewis ft. Art Farmer and Benny Golson (1961) {2013 Japan Jazz The Best Series 24-bit Remaster}\05 - 2 Degrees East, 3 Degrees West.wav Pre-gap length 0:00:03.59 Peak level 99.9 %
Extraction speed 3.0 X
Track quality 100.0 %
Test CRC 805C6D9A
Copy CRC 805C6D9A
Accurately ripped (confidence 2) [A102FFE8] (AR v2)
Copy OK

Track 6 Filename C:\The Jazztet and John Lewis ft. Art Farmer and Benny Golson (1961) {2013 Japan Jazz The Best Series 24-bit Remaster}\06 - Odds Against Tomorrow.wav Pre-gap length 0:00:03.59 Peak level 95.8 %
Extraction speed 3.0 X
Track quality 99.9 %
Test CRC 5A33506F
Copy CRC 5A33506F
Accurately ripped (confidence 2) [335BF735] (AR v2)
Copy OK

All tracks accurately ripped

No errors occurred

End of status report

==== Log checksum 84372BF28C3FC6DF3FB91DC9592B397457599EA0F40425FC308B6C7CA5C7E607 ====

http://i63.fastpic.ru/big/2015/0128/1f/d64c81248b533128e61cb6092ae3fa1f.jpg

http://i57.fastpic.ru/big/2015/0128/c3/b3b911260aafb531b189b4b7510c36c3.jpg


More Japan Jazz The Best Series 24-bit Remaster:


NEXT -> More Japan Jazz The Best Series 24-bit Remaster...
DOWNLOAD LINKS:
Buy Premium To Support Me & Get Resumable Support & Max Speed


Links are Interchangeable - No Password - Single Extraction

The Jazztet and John Lewis ft. Art Farmer and Benny Golson (1961) {2013 Japan Jazz The Best Series 24-bit Remaster} Fast Download



 
 
 
Dear visitor, you went to the site as an unregistered user. We encourage you to register or enter the site under your name.
 
   
 
 (Votes #: 0)