2013Zone For Latest Downloads

 
     
 
Legal Downloads » Music » Emerson, Lake & Palmer - Tarkus (1971)
Menu
Home Applications
Games Movies
Music TV Shows
Torrents Graphics

Sitemap

RSS
 
Advanced Search
Last News
Site Info
Top Contributors:
  1    supper88 32766
  2    admin 32693
  3    Whisky 10080
  4    Shark_ 8911
  5    creativelivenew 8706
  6    whathesupa 2799
  7    candymypost 840
  8    hvnteam 629
  9    vuong87 3


Articles:
  This Hour: 0
  Today: 0
  This Month: 10
  All Time: 515561


Torrents:
  Today: 0
  Yesterday: 0
  All Time: 156684


Membership:
  Registered Today :0
  This Hour:0
  This Month:0
  Total:14
  Banned:1

{online}
{inform_torrent}
Friend:
We Recomend
Trend
Trend
Ad1

Search In Site

Music : Emerson, Lake & Palmer - Tarkus (1971)
 
http://i66.fastpic.ru/big/2015/0128/27/aecc75eba1df39a6e9d3f345cb300427.jpg

Emerson, Lake & Palmer - Tarkus (1971)
EAC | Flac(Image) + Cue + Log & MP3 CBR 320Kbps
1993 | Victory Music, 828 465-2 | ~ 283 or 112 Mb | Scans included
Progressive Rock

"Emerson, Lake & Palmer's 1970 eponymous LP was only a rehearsal. It hit hard because of the novelty of the act (allegedly the first supergroup in rock history), but felt more like a collection of individual efforts and ideas than a collective work. All doubts were dissipated by the release of Tarkus in 1971..."

Emerson, Lake & Palmer - Tarkus (1971):

http://i59.fastpic.ru/big/2015/0128/e0/d492e783d70dc8b6774ed947f2030de0.jpg

Tracklist:

01. Tarkus - 20:42
02. Jeremy Bender - 1:50
03. Bitches Crystal - 3:58
04. The Only Way (Hymn) - 3:49
05. Infinite Space (Conclusion) - 3:21
06. A Time And A Place - 3:02
07. Are You Ready Eddy? - 2:11

Exact Audio Copy V1.0 beta 3 from 29. August 2011

EAC extraction logfile from 19. January 2015, 1:32

Emerson, Lake & Palmer / Tarkus (828 465-2)

Used drive : HL-DT-STDVDRAM GE20NU11 Adapter: 0 ID: 1

Read mode : Secure
Utilize accurate stream : Yes
Defeat audio cache : Yes
Make use of C2 pointers : No

Read offset correction : 667
Overread into Lead-In and Lead-Out : No
Fill up missing offset samples with silence : Yes
Delete leading and trailing silent blocks : No
Null samples used in CRC calculations : Yes
Used interface : Native Win32 interface for Win NT & 2000

Used output format : User Defined Encoder
Selected bitrate : 896 kBit/s
Quality : High
Add ID3 tag : No
Command line compressor : C:\Program Files\EAC 3\Exact Audio Copy\Flac\flac.exe
Additional command line options : -V -8 %source%

TOC of the extracted CD Track | Start | Length | Start sector | End sector
-----------
1 | 0:00.32 | 20:42.18 | 32 | 93199
2 | 20:42.50 | 1:50.20 | 93200 | 101469
3 | 22:32.70 | 3:58.10 | 101470 | 119329
4 | 26:31.05 | 3:48.40 | 119330 | 136469
5 | 30:19.45 | 3:20.62 | 136470 | 151531
6 | 33:40.32 | 3:01.55 | 151532 | 165161
7 | 36:42.12 | 2:10.40 | 165162 | 174951

Range status and errors

Selected range Filename C:\OdW\1971. Emerson, Lake & Palmer - Tarkus (1993, Victory, Germany, 828 465-2)\ELP - Tarkus.wav Peak level 100.0 %
Extraction speed 1.6 X
Range quality 100.0 %
Test CRC B2A896B2
Copy CRC B2A896B2
Copy OK

No errors occurred


AccurateRip summary

Track 1 accurately ripped (confidence 12) [6EF9D970] (AR v2)
Track 2 accurately ripped (confidence 12) [8F53ECDA] (AR v2)
Track 3 accurately ripped (confidence 12) 4315B8C (AR v2)
Track 4 accurately ripped (confidence 12) [5E2C769D] (AR v2)
Track 5 accurately ripped (confidence 13) B9DDDA6 (AR v2)
Track 6 accurately ripped (confidence 12) [711D50CE] (AR v2)
Track 7 accurately ripped (confidence 11) [14A21615] (AR v2)

All tracks accurately ripped

End of status report

foobar2000 1.2.9 / Dynamic Range Meter 1.1.1
log date: 2015-01-26 12:23:27

--
Analyzed: Emerson, Lake & Palmer / Tarkus (828 465-2)
--

DR Peak RMS Duration Track
--
DR9 0.00 dB -10.58 dB 20:42 01-Tarkus
DR13 -1.07 dB -16.11 dB 1:50 02-Jeremy Bender
DR12 -0.44 dB -16.16 dB 3:58 03-Bitches Crystal
DR11 -4.31 dB -18.39 dB 3:49 04-The Only Way (Hymn)
DR12 -2.77 dB -18.99 dB 3:21 05-Infinite Space (Conclusion)
DR10 -0.79 dB -12.36 dB 3:02 06-A Time And A Place
DR11 -2.60 dB -15.35 dB 2:11 07-Are You Ready Eddy?
--

Number of tracks: 7
Official DR value: DR11

Samplerate: 44100 Hz
Channels: 2
Bits per sample: 16
Bitrate: 917 kbps
Codec: FLAC

[CUETools log; Date: 26.01.2015 13:00:58; Version: 2.1.4]
Pregap length 00:00:32.
[CTDB TOCID: GwoyxQ5azWc7IaouKjyo9GBUwKU-] found.
Track | CTDB Status
1 | (15/15) Accurately ripped
2 | (15/15) Accurately ripped
3 | (15/15) Accurately ripped
4 | (15/15) Accurately ripped
5 | (15/15) Accurately ripped
6 | (15/15) Accurately ripped
7 | (15/15) Accurately ripped
[AccurateRip ID: 000e6044-004e0e3e-46091c07] found.
Track [ CRC | V2 ] Status
01 [2a85dee0|6ef9d970] (016+012/263) Accurately ripped
02 [4a943360|8f53ecda] (017+012/274) Accurately ripped
03 [0937fc0d|b4315b8c] (017+012/273) Accurately ripped
04 [64e56b85|5e2c769d] (019+012/275) Accurately ripped
05 [f2d5747c|bb9ddda6] (017+013/276) Accurately ripped
06 [17141261|711d50ce] (018+012/275) Accurately ripped
07 [e900cffd|14a21615] (018+011/270) Accurately ripped
Offsetted by -516:
01 [683d96f3] (004/263) Accurately ripped
02 [a84d7928] (004/274) Accurately ripped
03 [778ec2a9] (004/273) Accurately ripped
04 [210d8c56] (004/275) Accurately ripped
05 [cc9eb35b] (004/276) Accurately ripped
06 [0f27e151] (004/275) Accurately ripped
07 [abb42949] (004/270) Accurately ripped
Offsetted by -498:
01 99d7cfb (020/263) Accurately ripped
02 [7567c124] (020/274) Accurately ripped
03 [0297a3eb] (020/273) Accurately ripped
04 [7306a931] (020/275) Accurately ripped
05 [f2dd8118] (020/276) Accurately ripped
06 [7d925a19] (020/275) Accurately ripped
07 [2b6be5f3] (020/270) Accurately ripped
Offsetted by 130:
01 [ef1033cd] (021/263) Accurately ripped
02 [4cc3c97c] (023/274) Accurately ripped
03 [f55bac3f] (023/273) Accurately ripped
04 [5ad5c2c0] (023/275) Accurately ripped
05 [8260d0f9] (023/276) Accurately ripped
06 [181508e9] (023/275) Accurately ripped
07 [d934b43e] (022/270) Accurately ripped
Offsetted by 148:
01 [d1089591] (018/263) Accurately ripped
02 [19de1178] (018/274) Accurately ripped
03 [80648d81] (018/273) Accurately ripped
04 [cf7bd06a] (018/275) Accurately ripped
05 [351bc7e7] (018/276) Accurately ripped
06 [867f81b1] (018/275) Accurately ripped
07 [d8a2087b] (018/270) Accurately ripped
Offsetted by 156:
01 [121e539e] (003/263) Accurately ripped
02 [e6cd4de8] (003/274) Accurately ripped
03 e2f9c49 (003/273) Accurately ripped
04 [de2839cd] (003/275) Accurately ripped
05 [dd434a14] (003/276) Accurately ripped
06 [7eaed3d1] (003/275) Accurately ripped
07 [5e754bf2] (003/270) Accurately ripped
Offsetted by 166:
01 [dccf9bca] (008/263) Accurately ripped
02 [e6f85974] (008/274) Accurately ripped
03 [0b6d6ec3] (008/273) Accurately ripped
04 [e1251c1f] (008/275) Accurately ripped
05 3e0319a (008/276) Accurately ripped
06 [f4e9fa79] (008/275) Accurately ripped
07 [f49aa54d] (008/270) Accurately ripped
Offsetted by 820:
01 [1f85f6e2] (007/263) Accurately ripped
02 [585de638] (006/274) Accurately ripped
03 [c7056721] (006/273) Accurately ripped
04 [08f1a92a] (006/275) Accurately ripped
05 [428989e7] (006/276) Accurately ripped
06 [1cd32f4c] (006/275) Accurately ripped
07 [8d8d0c86] (007/270) Accurately ripped
Offsetted by 822:
01 [590bd40e] (002/263) Accurately ripped
02 [8b99b554] (002/274) Accurately ripped
03 [d6782ad3] (002/273) Accurately ripped
04 [e8a87cbf] (002/275) Accurately ripped
05 [0afdbb0a] (002/276) Accurately ripped
06 [e44eb9ea] (002/275) Accurately ripped
07 [a585def5] (002/270) Accurately ripped
Offsetted by 830:
01 [3adec11d] (019/263) Accurately ripped
02 [5888f1c4] (021/274) Accurately ripped
03 [1443399b] (021/273) Accurately ripped
04 [3fa086df] (021/275) Accurately ripped
05 [0f4884fa] (021/276) Accurately ripped
06 [95ff4fab] (021/275) Accurately ripped
07 [66efbe3c] (021/270) Accurately ripped
Offsetted by 832:
01 [316ee039] (004/263) Accurately ripped
02 [8bc4c0e0] (004/274) Accurately ripped
03 [23b5fd4d] (004/273) Accurately ripped
04 [1bc95cac] (004/275) Accurately ripped
05 [c6f4be55] (004/276) Accurately ripped
06 [a7598ff0] (004/275) Accurately ripped
07 [7ef19084] (004/270) Accurately ripped
Offsetted by 1489:
01 [17277064] (035/263) Accurately ripped
02 [ca04044e] (036/274) Accurately ripped
03 [16c08a17] (037/273) Accurately ripped
04 [93501e1d] (036/275) Accurately ripped
05 [2b33d118] (037/276) Accurately ripped
06 [c601ba19] (037/275) Accurately ripped
07 [f62a5f3d] (035/270) Accurately ripped
Offsetted by -501:
01 [2c0d814f] (000/263) No match
02 [a88e0a7a] (002/274) Accurately ripped
03 [eb6b7e60] (002/273) Accurately ripped
04 [ccf723d3] (002/275) Accurately ripped
05 [95b2d60a] (002/276) Accurately ripped
06 [c0809b4d] (002/275) Accurately ripped
07 [160d3665] (000/270) No match (V2 was not tested)
Offsetted by 825:
01 d3af4d5 (000/263) No match (V2 was not tested)
02 [58736bfe] (002/274) Accurately ripped
03 [eda4505e] (002/273) Accurately ripped
04 [9aa19931] (002/275) Accurately ripped
05 [32de84f4] (002/276) Accurately ripped
06 [ea8c2f10] (002/275) Accurately ripped
07 [151bb065] (002/270) Accurately ripped
Offsetted by 1306:
01 [34a9d8fd] (000/263) No match
02 [fa237dcc] (000/274) No match
03 [3fc68ff3] (000/273) No match
04 [0ae399d9] (000/275) No match
05 [e1cdc75a] (000/276) No match
06 [c097bae5] (000/275) No match (V2 was not tested)
07 [acd500ff] (000/270) No match
Offsetted by 1307:
01 [3bf8e5ca] (000/263) No match
02 [93c1655a] (000/274) No match
03 [1f06f62f] (000/273) No match (V2 was not tested)
04 [2985391e] (002/275) Accurately ripped
05 [907252fc] (000/276) No match
06 [3330efc6] (000/275) No match
07 [04326a3a] (000/270) No match
Offsetted by 1308:
01 [4ed34e8c] (002/263) Accurately ripped
02 [2d5f4ce8] (000/274) No match
03 [c0a79a9f] (000/273) No match
04 ce68c75 (000/275) No match
05 [3f2add25] (000/276) No match (V2 was not tested)
06 [72598fd9] (000/275) No match
07 [5b99d375] (000/270) No match (V2 was not tested)
Offsetted by 1310:
01 [74b3fdde] (000/263) No match
02 [609b1c04] (000/274) No match (V2 was not tested)
03 [c02b9e17] (000/273) No match
04 [8f241f91] (000/275) No match
05 [a2715064] (000/276) No match
06 [5b118e7d] (000/275) No match
07 [3f8da5e7] (000/270) No match

Track Peak [ CRC32 ] [W/O NULL] [ LOG ]
-- 100,0 2A896B2 [8761785D] CRC32
01 100,0 [73D627B8] [7CE7A457]
02 88,3 [EB0A19A3] [CA3CCC4F]
03 95,1 [035B0054] [1A9D8192]
04 60,9 [1F2C1721] [69729031]
05 72,7 [A7615AE4] [43D31C9E]
06 91,2 [0F6D0E3B] [6213E313]
07 74,1 [C519EA15] [E5299C74]

http://i63.fastpic.ru/big/2015/0128/38/6c99a1f3111ca0669fa296e5a7f3d338.jpg

All thanks go to Olaf der Weisse
DOWNLOAD LINKS:
Buy Premium To Support Me & Get Resumable Support & Max Speed


Links are Interchangeable - No Password - Single Extraction

Emerson, Lake & Palmer - Tarkus (1971) Fast Download


Ad2

 
 
 
Dear visitor, you went to the site as an unregistered user. We encourage you to register or enter the site under your name.
 
   
 
 (Votes #: 0)