2013Zone For Latest Downloads

 
     
 
Legal Downloads » Music » VA - Purobeach Oasis Del Mar: Volumen Diez (2014)
Menu
Home Applications
Games Movies
Music TV Shows
Torrents Graphics

Sitemap

RSS
 
Advanced Search
Last News
Site Info
Top Contributors:
  1    supper88 32766
  2    admin 32693
  3    Whisky 10080
  4    Shark_ 8911
  5    creativelivenew 8706
  6    whathesupa 2799
  7    candymypost 840
  8    hvnteam 629
  9    vuong87 3


Articles:
  This Hour: 0
  Today: 0
  This Month: 10
  All Time: 515561


Torrents:
  Today: 0
  Yesterday: 0
  All Time: 156684


Membership:
  Registered Today :0
  This Hour:0
  This Month:0
  Total:14
  Banned:1

{online}
{inform_torrent}
Friend:
We Recomend
Trend
Trend
Ad1

Search In Site

Music : VA - Purobeach Oasis Del Mar: Volumen Diez (2014)
 
http://i63.fastpic.ru/big/2015/0128/76/464ef36ad1885d31a536a2da17e56676.jpg

VA - Purobeach Oasis Del Mar: Volumen Diez (2014)
EAC Rip | 2CDs | FLAC Tracks + Cue + Log - 939 MB | MP3 CBR @320 kbps - 344 MB | Full scans - 149 MB
Label: Meerkat Music | Catalog.#: MEERCD049 | Genre: Lounge

"The 10th-year anniversary is celebrated with this compilation. Since the opening of Purobeach, 10 years ago, establishments from Europe to Dubai followed. This collector was compiled by Ben Sowton and Sebba Ramis, both residents. A wonderful story going from Nu-disco, house to deep house wherein a tropical touch is always just around the corner. Names such as John Tejada, Satin Jackets, Phonique, Vincenzo, Jon Kennedy, James Bright are delivering all tracks for this wonderful compilation."

CD1 - Día - Compiled And Mixed By Ben Sowton

01. Burudu - Sun Theory - 08:33
02. Carlos Cervilla - Midday Sun - 05:39
03. James Bright Feat. Alexandra Hamnede - Stay With Me - 04:05
04. 9 In Common - Action & Reaction (90's Remix) - 04:45
05. James Welsh - Nowt (Ron Basejam Remix) - 06:52
06. Jon Kennedy - Air Force One (Lopez Undercover 83 Remix) - 06:17
07. James Bright - Lighthouse - 04:53
08. Chris Coco - St James Grove - 04:59
09. Vincenzo & Language - Merry Go Round - 06:44
10. Jazzloungerz - Hold On (Rafael Yapudjian Reprise Mix) - 06:04
11. Angel Johnson Feat. Tammy Cartwright - Lover Heaven (Love Cherub Remix) - 05:02
12. Mikael Delta - Staunch Hearts - 06:52
13. Minus Blue - Don't Give Your Love Away (Stoned By Klangstein Mix) - 05:50

Exact Audio Copy V1.0 beta 3 from 29. August 2011

EAC extraction logfile from 12. January 2015, 12:50

Various Artists / Purobeach Oasis Del Mar Volumen Diez - CD1

Used drive : ASUS DRW-24B3ST Adapter: 3 ID: 0

Read mode : Secure
Utilize accurate stream : Yes
Defeat audio cache : Yes
Make use of C2 pointers : No

Read offset correction : 6
Overread into Lead-In and Lead-Out : No
Fill up missing offset samples with silence : Yes
Delete leading and trailing silent blocks : No
Null samples used in CRC calculations : Yes
Used interface : Native Win32 interface for Win NT & 2000
Gap handling : Appended to previous track

Used output format : User Defined Encoder
Selected bitrate : 896 kBit/s
Quality : High
Add ID3 tag : No
Command line compressor : C:\Program Files (x86)\Exact Audio Copy\Flac\flac.exe
Additional command line options : -8 -V -T "ARTIST=%artist%" -T "TITLE=%title%" -T "ALBUM=%albumtitle%" -T "DATE=%year%" -T "TRACKNUMBER=%tracknr%" -T "GENRE=%genre%" -T "COMMENT=ripped by Oleandris" %source%

TOC of the extracted CD Track | Start | Length | Start sector | End sector
-----------
1 | 0:00.00 | 8:32.08 | 0 | 38407
2 | 8:32.08 | 5:38.26 | 38408 | 63783
3 | 14:10.34 | 4:04.22 | 63784 | 82105
4 | 18:14.56 | 4:44.23 | 82106 | 103428
5 | 22:59.04 | 6:51.21 | 103429 | 134274
6 | 29:50.25 | 6:16.61 | 134275 | 162535
7 | 36:07.11 | 4:52.60 | 162536 | 184495
8 | 40:59.71 | 4:59.04 | 184496 | 206924
9 | 45:59.00 | 6:43.52 | 206925 | 237201
10 | 52:42.52 | 6:03.40 | 237202 | 264466
11 | 58:46.17 | 5:01.35 | 264467 | 287076
12 | 63:47.52 | 6:51.37 | 287077 | 317938
13 | 70:39.14 | 5:49.39 | 317939 | 344152

Track 1 Filename F:\ЗАГРУЗК?\ Purobeach. Oasis Del Mar. Volumen Diez 2CD (2014)\CD1 - Dia - Compiled And Mixed By Ben Sowton\01. Burudu - Sun Theory.wav Pre-gap length 0:00:02.00 Peak level 76.7 %
Extraction speed 6.1 X
Track quality 100.0 %
Test CRC AE4DECF6
Copy CRC AE4DECF6
Track not present in AccurateRip database
Copy OK

Track 2 Filename F:\ЗАГРУЗК?\ Purobeach. Oasis Del Mar. Volumen Diez 2CD (2014)\CD1 - Dia - Compiled And Mixed By Ben Sowton\02. Carlos Cervilla - Midday Sun.wav Peak level 76.7 %
Extraction speed 6.8 X
Track quality 100.0 %
Test CRC 2DB3C4CC
Copy CRC 2DB3C4CC
Track not present in AccurateRip database
Copy OK

Track 3 Filename F:\ЗАГРУЗК?\ Purobeach. Oasis Del Mar. Volumen Diez 2CD (2014)\CD1 - Dia - Compiled And Mixed By Ben Sowton\03. James Bright Feat. Alexandra Hamnede - Stay With Me.wav Peak level 76.7 %
Extraction speed 7.1 X
Track quality 100.0 %
Test CRC 00EA9381
Copy CRC 00EA9381
Track not present in AccurateRip database
Copy OK

Track 4 Filename F:\ЗАГРУЗК?\ Purobeach. Oasis Del Mar. Volumen Diez 2CD (2014)\CD1 - Dia - Compiled And Mixed By Ben Sowton\04. 9 In Common - Action & Reaction (90's Remix).wav Peak level 76.7 %
Extraction speed 7.6 X
Track quality 100.0 %
Test CRC CE4F042D
Copy CRC CE4F042D
Track not present in AccurateRip database
Copy OK

Track 5 Filename F:\ЗАГРУЗК?\ Purobeach. Oasis Del Mar. Volumen Diez 2CD (2014)\CD1 - Dia - Compiled And Mixed By Ben Sowton\05. James Welsh - Nowt (Ron Basejam Remix).wav Peak level 76.7 %
Extraction speed 8.4 X
Track quality 100.0 %
Test CRC 94900897
Copy CRC 94900897
Track not present in AccurateRip database
Copy OK

Track 6 Filename F:\ЗАГРУЗК?\ Purobeach. Oasis Del Mar. Volumen Diez 2CD (2014)\CD1 - Dia - Compiled And Mixed By Ben Sowton\06. Jon Kennedy - Air Force One (Lopez Undercover 83 Remix).wav Peak level 76.7 %
Extraction speed 7.9 X
Track quality 99.9 %
Test CRC 6879F93D
Copy CRC 6879F93D
Track not present in AccurateRip database
Copy OK

Track 7 Filename F:\ЗАГРУЗК?\ Purobeach. Oasis Del Mar. Volumen Diez 2CD (2014)\CD1 - Dia - Compiled And Mixed By Ben Sowton\07. James Bright - Lighthouse.wav Peak level 76.7 %
Extraction speed 7.8 X
Track quality 99.9 %
Test CRC E52C6089
Copy CRC E52C6089
Track not present in AccurateRip database
Copy OK

Track 8 Filename F:\ЗАГРУЗК?\ Purobeach. Oasis Del Mar. Volumen Diez 2CD (2014)\CD1 - Dia - Compiled And Mixed By Ben Sowton\08. Chris Coco - St James Grove.wav Peak level 76.7 %
Extraction speed 9.4 X
Track quality 100.0 %
Test CRC 6F2F2813
Copy CRC 6F2F2813
Track not present in AccurateRip database
Copy OK

Track 9 Filename F:\ЗАГРУЗК?\ Purobeach. Oasis Del Mar. Volumen Diez 2CD (2014)\CD1 - Dia - Compiled And Mixed By Ben Sowton\09. Vincenzo & Language - Merry Go Round.wav Peak level 76.7 %
Extraction speed 9.1 X
Track quality 99.9 %
Test CRC F7CCEB42
Copy CRC F7CCEB42
Track not present in AccurateRip database
Copy OK

Track 10 Filename F:\ЗАГРУЗК?\ Purobeach. Oasis Del Mar. Volumen Diez 2CD (2014)\CD1 - Dia - Compiled And Mixed By Ben Sowton\10. Jazzloungerz - Hold On (Rafael Yapudjian Reprise Mix).wav Peak level 76.7 %
Extraction speed 9.2 X
Track quality 99.9 %
Test CRC 43319C12
Copy CRC 43319C12
Track not present in AccurateRip database
Copy OK

Track 11 Filename F:\ЗАГРУЗК?\ Purobeach. Oasis Del Mar. Volumen Diez 2CD (2014)\CD1 - Dia - Compiled And Mixed By Ben Sowton\11. Angel Johnson Feat. Tammy Cartwright - Lover Heaven (Love Cherub Remix).wav Peak level 76.7 %
Extraction speed 9.1 X
Track quality 99.9 %
Test CRC 40F8A90F
Copy CRC 40F8A90F
Track not present in AccurateRip database
Copy OK

Track 12 Filename F:\ЗАГРУЗК?\ Purobeach. Oasis Del Mar. Volumen Diez 2CD (2014)\CD1 - Dia - Compiled And Mixed By Ben Sowton\12. Mikael Delta - Staunch Hearts.wav Peak level 76.7 %
Extraction speed 11.4 X
Track quality 100.0 %
Test CRC 16EC9AC9
Copy CRC 16EC9AC9
Track not present in AccurateRip database
Copy OK

Track 13 Filename F:\ЗАГРУЗК?\ Purobeach. Oasis Del Mar. Volumen Diez 2CD (2014)\CD1 - Dia - Compiled And Mixed By Ben Sowton\13. Minus Blue - Don't Give Your Love Away (Stoned By Klangstein Mix).wav Peak level 76.7 %
Extraction speed 11.4 X
Track quality 100.0 %
Test CRC 11A12E02
Copy CRC 11A12E02
Track not present in AccurateRip database
Copy OK

None of the tracks are present in the AccurateRip database

No errors occurred

End of status report

---- CUETools DB Plugin V2.1.3

[CTDB TOCID: 6I9C4n.s0MSEVYAOZj6H7a71t9M-] disk not present in database, Submit result: 6I9C4n.s0MSEVYAOZj6H7a71t9M- has been uploaded

==== Log checksum B14EE1052DDCF5CD075ADAADB79ACFA7AC08A9C259CA9EE5824247CEFC3DFAED ====

[CUETools log; Date: 1/25/2015 9:59:59 PM; Version: 2.1.4]
[CTDB TOCID: 6I9C4n.s0MSEVYAOZj6H7a71t9M-] found.
Track | CTDB Status
1 | (1/1) Accurately ripped
2 | (1/1) Accurately ripped
3 | (1/1) Accurately ripped
4 | (1/1) Accurately ripped
5 | (1/1) Accurately ripped
6 | (1/1) Accurately ripped
7 | (1/1) Accurately ripped
8 | (1/1) Accurately ripped
9 | (1/1) Accurately ripped
10 | (1/1) Accurately ripped
11 | (1/1) Accurately ripped
12 | (1/1) Accurately ripped
13 | (1/1) Accurately ripped
[AccurateRip ID: 002507ad-016f529f-bb11ec0d] disk not present in database.

Track Peak [ CRC32 ] [W/O NULL] [ LOG ]
-- 76.7 [66E196FC] [FD5F3A96]
01 76.7 [AE4DECF6] [D6452DF0] CRC32
02 76.7 [2DB3C4CC] [E8F3598F] CRC32
03 76.7 [00EA9381] 10E5AAF CRC32
04 76.7 [CE4F042D] [1B4C51D7] CRC32
05 76.7 [94900897] [EBC7CBE5] CRC32
06 76.7 [6879F93D] [F0B3B0ED] CRC32
07 76.7 [E52C6089] [6E504481] CRC32
08 76.7 [6F2F2813] [6B0587BA] CRC32
09 76.7 [F7CCEB42] [8D42654B] CRC32
10 76.7 [43319C12] [7F9EE82E] CRC32
11 76.7 [40F8A90F] [0A63D311] CRC32
12 76.7 [16EC9AC9] [C2D169A0] CRC32
13 76.7 [11A12E02] [19D99134] CRC32

CD2 - Noche - Compiled And Mixed By Sebas Ramis

01. Wiki & Oneplus - Rise To The Surface - 08:01
02. Bruno Be & Eddie M. - 2Nd Floor - 04:48
03. Corduroy Mavericks Feat. Sara Z - Need Allove That Sound - 04:07
04. Maz Lyazgin & Hot Sand - Soul Ties (Jamie Antonelli Remix) - 05:19
05. Campaner - Too Hot (Sebas Ramis Purobeach Remix) - 06:38
06. James Fox Feat. Vanity Jay - Holding On (NYC Mix) - 04:47
07. Phonique & Erlend Oye - Casualities (Antonio Eudi & Bruno Be Remix) - 05:34
08. Soul Button Feat. Stee Downes - In My Stride - 05:01
09. Vincenzo & Minako - Junebug - 04:29
10. David Kassi - Things You Do - 04:29
11. Jay West - Without Your Love (Pammin Remix) - 04:29
12. Maz Lyazgin - Happy Days (Satin Jackets Remix) - 04:47
13. Soy Mustafa - Return Of The Anunnaki (John Tejada Remix) - 06:52

Exact Audio Copy V1.0 beta 3 from 29. August 2011

EAC extraction logfile from 12. January 2015, 12:50

Various Artists / Purobeach Oasis Del Mar Volumen Diez - CD2

Used drive : PLEXTOR DVDR PX-L890SA Adapter: 5 ID: 0

Read mode : Secure
Utilize accurate stream : Yes
Defeat audio cache : Yes
Make use of C2 pointers : No

Read offset correction : 6
Overread into Lead-In and Lead-Out : No
Fill up missing offset samples with silence : Yes
Delete leading and trailing silent blocks : No
Null samples used in CRC calculations : Yes
Used interface : Native Win32 interface for Win NT & 2000
Gap handling : Appended to previous track

Used output format : User Defined Encoder
Selected bitrate : 896 kBit/s
Quality : High
Add ID3 tag : No
Command line compressor : C:\Program Files (x86)\Exact Audio Copy\Flac\flac.exe
Additional command line options : -8 -V -T "ARTIST=%artist%" -T "TITLE=%title%" -T "ALBUM=%albumtitle%" -T "DATE=%year%" -T "TRACKNUMBER=%tracknr%" -T "GENRE=%genre%" -T "COMMENT=ripped by Oleandris" %source%

TOC of the extracted CD Track | Start | Length | Start sector | End sector
-----------
1 | 0:00.00 | 8:00.07 | 0 | 36006
2 | 8:00.07 | 4:47.68 | 36007 | 57599
3 | 12:48.00 | 4:07.06 | 57600 | 76130
4 | 16:55.06 | 5:18.55 | 76131 | 100035
5 | 22:13.61 | 6:37.37 | 100036 | 129847
6 | 28:51.23 | 4:46.16 | 129848 | 151313
7 | 33:37.39 | 5:33.47 | 151314 | 176335
8 | 39:11.11 | 5:00.71 | 176336 | 198906
9 | 44:12.07 | 4:28.47 | 198907 | 219053
10 | 48:40.54 | 4:28.46 | 219054 | 239199
11 | 53:09.25 | 4:28.45 | 239200 | 259344
12 | 57:37.70 | 4:46.30 | 259345 | 280824
13 | 62:24.25 | 6:51.31 | 280825 | 311680

Track 1 Filename F:\ЗАГРУЗК?\ Purobeach. Oasis Del Mar. Volumen Diez 2CD (2014)\CD2 - Noche - Compiled And Mixed By Sebas Ramis\01. Wiki & Oneplus - Rise To The Surface.wav Pre-gap length 0:00:02.00 Peak level 96.6 %
Extraction speed 5.6 X
Track quality 100.0 %
Test CRC 82A700D9
Copy CRC 82A700D9
Track not present in AccurateRip database
Copy OK

Track 2 Filename F:\ЗАГРУЗК?\ Purobeach. Oasis Del Mar. Volumen Diez 2CD (2014)\CD2 - Noche - Compiled And Mixed By Sebas Ramis\02. Bruno Be & Eddie M. - 2Nd Floor.wav Peak level 96.6 %
Extraction speed 6.1 X
Track quality 100.0 %
Test CRC 87B6B5C3
Copy CRC 87B6B5C3
Track not present in AccurateRip database
Copy OK

Track 3 Filename F:\ЗАГРУЗК?\ Purobeach. Oasis Del Mar. Volumen Diez 2CD (2014)\CD2 - Noche - Compiled And Mixed By Sebas Ramis\03. Corduroy Mavericks Feat. Sara Z - Need Allove That Sound.wav Peak level 96.6 %
Extraction speed 6.5 X
Track quality 100.0 %
Test CRC 35ECFCC2
Copy CRC 35ECFCC2
Track not present in AccurateRip database
Copy OK

Track 4 Filename F:\ЗАГРУЗК?\ Purobeach. Oasis Del Mar. Volumen Diez 2CD (2014)\CD2 - Noche - Compiled And Mixed By Sebas Ramis\04. Maz Lyazgin & Hot Sand - Soul Ties (Jamie Antonelli Remix).wav Peak level 96.6 %
Extraction speed 6.2 X
Track quality 99.9 %
Test CRC 5CF50E2C
Copy CRC 5CF50E2C
Track not present in AccurateRip database
Copy OK

Track 5 Filename F:\ЗАГРУЗК?\ Purobeach. Oasis Del Mar. Volumen Diez 2CD (2014)\CD2 - Noche - Compiled And Mixed By Sebas Ramis\05. Campaner - Too Hot (Sebas Ramis Purobeach Remix).wav Peak level 96.6 %
Extraction speed 7.9 X
Track quality 100.0 %
Test CRC C7309132
Copy CRC C7309132
Track not present in AccurateRip database
Copy OK

Track 6 Filename F:\ЗАГРУЗК?\ Purobeach. Oasis Del Mar. Volumen Diez 2CD (2014)\CD2 - Noche - Compiled And Mixed By Sebas Ramis\06. James Fox Feat. Vanity Jay - Holding On (NYC Mix).wav Peak level 96.6 %
Extraction speed 8.0 X
Track quality 100.0 %
Test CRC C1485240
Copy CRC C1485240
Track not present in AccurateRip database
Copy OK

Track 7 Filename F:\ЗАГРУЗК?\ Purobeach. Oasis Del Mar. Volumen Diez 2CD (2014)\CD2 - Noche - Compiled And Mixed By Sebas Ramis\07. Phonique & Erlend Øye - Casualities (Antonio Eudi & Bruno Be Remix).wav Peak level 96.6 %
Extraction speed 7.5 X
Track quality 99.9 %
Test CRC 0C0C8342
Copy CRC 0C0C8342
Track not present in AccurateRip database
Copy OK

Track 8 Filename F:\ЗАГРУЗК?\ Purobeach. Oasis Del Mar. Volumen Diez 2CD (2014)\CD2 - Noche - Compiled And Mixed By Sebas Ramis\08. Soul Button Feat. Stee Downes - In My Stride.wav Peak level 96.6 %
Extraction speed 8.9 X
Track quality 100.0 %
Test CRC 1A917AD6
Copy CRC 1A917AD6
Track not present in AccurateRip database
Copy OK

Track 9 Filename F:\ЗАГРУЗК?\ Purobeach. Oasis Del Mar. Volumen Diez 2CD (2014)\CD2 - Noche - Compiled And Mixed By Sebas Ramis\09. Vincenzo & Minako - Junebug.wav Peak level 96.6 %
Extraction speed 9.2 X
Track quality 100.0 %
Test CRC 5889E6B7
Copy CRC 5889E6B7
Track not present in AccurateRip database
Copy OK

Track 10 Filename F:\ЗАГРУЗК?\ Purobeach. Oasis Del Mar. Volumen Diez 2CD (2014)\CD2 - Noche - Compiled And Mixed By Sebas Ramis\10. David Kassi - Things You Do.wav Peak level 96.6 %
Extraction speed 9.3 X
Track quality 100.0 %
Test CRC A9594882
Copy CRC A9594882
Track not present in AccurateRip database
Copy OK

Track 11 Filename F:\ЗАГРУЗК?\ Purobeach. Oasis Del Mar. Volumen Diez 2CD (2014)\CD2 - Noche - Compiled And Mixed By Sebas Ramis\11. Jay West - Without Your Love (Pammin Remix).wav Peak level 96.6 %
Extraction speed 8.2 X
Track quality 99.9 %
Test CRC DC80BF89
Copy CRC DC80BF89
Track not present in AccurateRip database
Copy OK

Track 12 Filename F:\ЗАГРУЗК?\ Purobeach. Oasis Del Mar. Volumen Diez 2CD (2014)\CD2 - Noche - Compiled And Mixed By Sebas Ramis\12. Maz Lyazgin - Happy Days (Satin Jackets Remix).wav Peak level 96.6 %
Extraction speed 9.9 X
Track quality 100.0 %
Test CRC 6AEE3F6C
Copy CRC 6AEE3F6C
Track not present in AccurateRip database
Copy OK

Track 13 Filename F:\ЗАГРУЗК?\ Purobeach. Oasis Del Mar. Volumen Diez 2CD (2014)\CD2 - Noche - Compiled And Mixed By Sebas Ramis\13. Soy Mustafa - Return Of The Anunnaki (John Tejada Remix).wav Peak level 96.6 %
Extraction speed 10.7 X
Track quality 100.0 %
Test CRC 2C3C4559
Copy CRC 2C3C4559
Track not present in AccurateRip database
Copy OK

None of the tracks are present in the AccurateRip database

No errors occurred

End of status report

---- CUETools DB Plugin V2.1.3

[CTDB TOCID: UgbKELTNDq4XEnnSdz4vgmCnhdo-] disk not present in database, Submit result: UgbKELTNDq4XEnnSdz4vgmCnhdo- has been uploaded

==== Log checksum 51198F2BBB3DC57D2AAE25BDC68F628C8FF2DB9A6551495E0B6046AE9E8C6A49 ====

[CUETools log; Date: 1/25/2015 10:00:09 PM; Version: 2.1.4]
[CTDB TOCID: UgbKELTNDq4XEnnSdz4vgmCnhdo-] found.
Track | CTDB Status
1 | (1/1) Accurately ripped
2 | (1/1) Accurately ripped
3 | (1/1) Accurately ripped
4 | (1/1) Accurately ripped
5 | (1/1) Accurately ripped
6 | (1/1) Accurately ripped
7 | (1/1) Accurately ripped
8 | (1/1) Accurately ripped
9 | (1/1) Accurately ripped
10 | (1/1) Accurately ripped
11 | (1/1) Accurately ripped
12 | (1/1) Accurately ripped
13 | (1/1) Accurately ripped
[AccurateRip ID: 00221f7c-0150413b-b1103b0d] disk not present in database.

Track Peak [ CRC32 ] [W/O NULL] [ LOG ]
-- 96.6 [D2A7494D] [E5615227]
01 96.6 [82A700D9] [C5E8851A] CRC32
02 96.6 [87B6B5C3] [FB425A51] CRC32
03 96.6 [35ECFCC2] [CC893DA8] CRC32
04 96.6 [5CF50E2C] 105F676 CRC32
05 96.6 [C7309132] [DF2D76E3] CRC32
06 96.6 [C1485240] [80C7F047] CRC32
07 96.6 [0C0C8342] [C49C5B9A] CRC32
08 96.6 [1A917AD6] [7E3FAC88] CRC32
09 96.6 [5889E6B7] [A8BC3295] CRC32
10 96.6 [A9594882] [D93362F1] CRC32
11 96.6 [DC80BF89] [933AEF88] CRC32
12 96.6 [6AEE3F6C] [37376DAA] CRC32
13 96.6 [2C3C4559] [7FEA7DC9] CRC32

Released Date: 2014
Format: CD, Compilation
Length: 1:16:28 (CD1) + 1:09:15 (CD2)

http://i58.fastpic.ru/big/2015/0128/04/b02ad5b29a37d311dba0661e99ba3e04.jpg

http://i57.fastpic.ru/big/2015/0128/f2/6a55bac04c4250b05734efed7e4347f2.jpg

http://i57.fastpic.ru/big/2015/0128/e2/dfbcff84cedfdb090f46b7dec47d03e2.jpg


DOWNLOAD LINKS:
Buy Premium To Support Me & Get Resumable Support & Max Speed


Links are Interchangeable - No Password - Single Extraction

VA - Purobeach Oasis Del Mar: Volumen Diez (2014) Fast Download


Ad2

 
 
 
Dear visitor, you went to the site as an unregistered user. We encourage you to register or enter the site under your name.
 
   
 
 (Votes #: 0)