2013Zone For Latest Downloads

 
     
 
Legal Downloads » Music » Emmylou Harris - Original Album Series, Vol.2 (1980-1986) [5CD BoxSet] {2013 Rhino Vinyl Replica}
Menu
Home Applications
Games Movies
Music TV Shows
Torrents Graphics

Sitemap

RSS
 
Advanced Search
Last News
Site Info
Top Contributors:
  1    supper88 32766
  2    admin 32693
  3    Whisky 10080
  4    Shark_ 8911
  5    creativelivenew 8706
  6    whathesupa 2799
  7    candymypost 840
  8    hvnteam 629
  9    vuong87 3


Articles:
  This Hour: 0
  Today: 0
  This Month: 0
  All Time: 515561


Torrents:
  Today: 0
  Yesterday: 0
  All Time: 156684


Membership:
  Registered Today :0
  This Hour:0
  This Month:0
  Total:14
  Banned:1

{online}
{inform_torrent}
Friend:
We Recomend
Trend
Trend
Ad1

Search In Site

Music : Emmylou Harris - Original Album Series, Vol.2 (1980-1986) [5CD BoxSet] {2013 Rhino Vinyl Replica}
 

http://i68.fastpic.ru/big/2015/0128/f8/121bed7eff2e30f6352cc42a18cb57f8.jpg
Emmylou Harris - Original Album Series, Vol.2 (1980-1986) [5CD BoxSet] {2013 Rhino Vinyl Replica}
EAC rip (secure mode) | FLAC (tracks)+CUE+LOG -> 1.03 Gb | MP3 @320 -> 407 Mb
Full Artwork @ 600 dpi (png) -> 161 Mb | 5% repair rar
© 2013 Rhino / Warner | 81227 96487
Country / Country Rock / Folk Rock / World

"The Original Album Collection is a series which brings together a collection of albums from an artists catalogue, all together in one convenient and compact pack. Each album is packaged in the original artwork in a cardboard slipcase. This very interesting in that to my knowledge two of these albums, "Evangeline" and "Thirteen" have never been released on CD before. Probably because they were not among Emmylou's best sellers, Warner Bros. passed them over when they were churning out dismal versions of catalogue material. Lucky for us, in order to release this package Rhino had to master this pair of gems for the first time, and apparently decided to do it properly. The other three titles in this packaged have been released before and with the exception of "White Shoes" have even been re-mastered."


http://i65.fastpic.ru/big/2015/0128/0c/4322f22fada65caebcc2f547b832140c.jpg
CD1 - Roses In The Snow (1980)

"Combining acoustic bluegrass with traditional Appalachian melodies (and tossing one contemporary tune, Paul Simon's "The Boxer," into the mix), Roses in the Snow ranks among Emmylou Harris' riskiest -- and most satisfying -- gambits."


tracklist:
01 - Roses In The Snow
02 - Wayfaring Stranger
03 - Green Pastures
04 - The Boxer
05 - Darkest Hour Is Just Before Dawn
06 - I'll Go Stepping Too
07 - You're Learning
08 - Jordan (with Johnny Cash)
09 - Miss The Mississippi And You
10 - Gold Watch And Chain

Exact Audio Copy V1.0 beta 3 from 29. August 2011

EAC extraction logfile from 30. April 2014, 6:00

Emmylou Harris / Roses In The Snow CD1

Used drive : PLEXTOR CD-R PREMIUM2 Adapter: 4 ID: 0

Read mode : Secure
Utilize accurate stream : Yes
Defeat audio cache : Yes
Make use of C2 pointers : No

Read offset correction : 30
Overread into Lead-In and Lead-Out : Yes
Fill up missing offset samples with silence : Yes
Delete leading and trailing silent blocks : No
Null samples used in CRC calculations : Yes
Used interface : Native Win32 interface for Win NT & 2000
Gap handling : Appended to previous track

Used output format : User Defined Encoder
Selected bitrate : 1024 kBit/s
Quality : High
Add ID3 tag : No
Command line compressor : C:\Program Files (x86)\Exact Audio Copy\Flac\flac.exe
Additional command line options : -8 -V -T "ARTIST=%artist%" -T "TITLE=%title%" -T "ALBUM=%albumtitle%" -T "DATE=%year%" -T "TRACKNUMBER=%tracknr%" -T "TOTALTRACKS=%numtracks%" -T "GENRE=%genre%" -T "ALBUMARTIST=%albumartist%" -T "ALBUM ARTIST=%albumartist%" -T "COMMENT=EAC Secure Mode, Test & Copy, AccurateRip, FLAC -8" %source%

TOC of the extracted CD Track | Start | Length | Start sector | End sector
-----------
1 | 0:00.00 | 2:37.55 | 0 | 11829
2 | 2:37.55 | 3:32.65 | 11830 | 27794
3 | 6:10.45 | 3:12.65 | 27795 | 42259
4 | 9:23.35 | 3:21.05 | 42260 | 57339
5 | 12:44.40 | 3:25.32 | 57340 | 72746
6 | 16:09.72 | 2:20.08 | 72747 | 83254
7 | 18:30.05 | 3:01.67 | 83255 | 96896
8 | 21:31.72 | 2:10.63 | 96897 | 106709
9 | 23:42.60 | 3:47.62 | 106710 | 123796
10 | 27:30.47 | 3:09.73 | 123797 | 138044

Track 1 Filename G:\FLAC\01 - Roses In The Snow.wav Pre-gap length 0:00:02.00 Peak level 63.2 %
Extraction speed 1.8 X
Track quality 100.0 %
Test CRC 56C57A9C
Copy CRC 56C57A9C
Accurately ripped (confidence 13) [9F789238] (AR v2)
Copy OK

Track 2 Filename G:\FLAC\02 - Wayfaring Stranger.wav Pre-gap length 0:00:05.30 Peak level 72.3 %
Extraction speed 1.9 X
Track quality 100.0 %
Test CRC 018C0099
Copy CRC 018C0099
Accurately ripped (confidence 13) [DDB1BB83] (AR v2)
Copy OK

Track 3 Filename G:\FLAC\03 - Green Pastures.wav Pre-gap length 0:00:06.40 Peak level 84.6 %
Extraction speed 1.8 X
Track quality 99.9 %
Test CRC C40F9FB6
Copy CRC C40F9FB6
Accurately ripped (confidence 13) [E4717276] (AR v2)
Copy OK

Track 4 Filename G:\FLAC\04 - The Boxer.wav Pre-gap length 0:00:04.73 Peak level 78.0 %
Extraction speed 1.9 X
Track quality 100.0 %
Test CRC 931DE2C0
Copy CRC 931DE2C0
Accurately ripped (confidence 13) [2D9D85F2] (AR v2)
Copy OK

Track 5 Filename G:\FLAC\05 - Darkest Hour Is Just Before Dawn.wav Pre-gap length 0:00:03.65 Peak level 81.9 %
Extraction speed 1.8 X
Track quality 100.0 %
Test CRC 580D2A66
Copy CRC 580D2A66
Accurately ripped (confidence 13) [69F1DD70] (AR v2)
Copy OK

Track 6 Filename G:\FLAC\06 - I'll Go Stepping Too.wav Pre-gap length 0:00:03.50 Peak level 99.8 %
Extraction speed 1.8 X
Track quality 99.9 %
Test CRC 183BEE2D
Copy CRC 183BEE2D
Accurately ripped (confidence 13) [E6057040] (AR v2)
Copy OK

Track 7 Filename G:\FLAC\07 - You're Learning.wav Pre-gap length 0:00:04.50 Peak level 88.5 %
Extraction speed 1.8 X
Track quality 99.9 %
Test CRC B6505F24
Copy CRC B6505F24
Accurately ripped (confidence 13) 888B21E (AR v2)
Copy OK

Track 8 Filename G:\FLAC\08 - Jordan (with Johnny Cash).wav Pre-gap length 0:00:03.62 Peak level 90.6 %
Extraction speed 1.8 X
Track quality 100.0 %
Test CRC 3277C0E5
Copy CRC 3277C0E5
Accurately ripped (confidence 13) [199C3010] (AR v2)
Copy OK

Track 9 Filename G:\FLAC\09 - Miss The Mississippi And You.wav Pre-gap length 0:00:03.65 Peak level 77.9 %
Extraction speed 1.9 X
Track quality 100.0 %
Test CRC 570104A5
Copy CRC 570104A5
Accurately ripped (confidence 13) [45342BF2] (AR v2)
Copy OK

Track 10 Filename G:\FLAC\10 - Gold Watch And Chain.wav Pre-gap length 0:00:06.22 Peak level 94.0 %
Extraction speed 1.9 X
Track quality 100.0 %
Test CRC AA0CD992
Copy CRC AA0CD992
Accurately ripped (confidence 13) [D6EB77A6] (AR v2)
Copy OK

All tracks accurately ripped

No errors occurred

End of status report

==== Log checksum 18645E8C2FB5B929398BB6D21F08EDD1C157BA84D6B6CC48322B240793DAD038 ====

http://i57.fastpic.ru/big/2015/0128/2a/0aa7bdc3364724ea4461dcba965cf72a.jpg


-------------

http://i59.fastpic.ru/big/2015/0128/e9/3e25b84aa19b5b20fc7c37afbd3e4ae9.jpg
CD2 - Evangeline (1981)

"Long considered a substandard effort due to its oddly brief running time (it's just barely half an hour long) and scattershot feel (like its sister album, Cimarron, also released in 1981, it primarily consists of outtakes from earlier albums), Evangeline is not as bad as its detractors claim. It's true that the album has more than a couple of clunkers; the synthesizers and California rock guitars of Rodney Crowell's "I Don't Have to Crawl" and "Ashes By Now" do neither singer nor songs any favors, the version of John Fogerty's "Bad Moon Rising" adds nothing new to the song, and James Taylor's "Millworker" simply isn't very good. On the other hand, two recordings from the then-unreleased Trio sessions with Dolly Parton and Linda Ronstadt, a perky "Mr. Sandman" that was a minor pop hit and a reworking of Robbie Robertson's haunting "Evangeline" featuring some outstanding harmonies from Parton, are outstanding, as are "Spanish Johnny," a Springsteen-ish ballad sung with Waylon Jennings, and a dazzling version of the standard "How High the Moon" that uses the same pre-rock arrangement style as "Mr. Sandman." So, Evangeline is certainly uneven, but it's not at all worthless."


tracklist:
01 - I Don't Have To Crawl
02 - How High The Moon
03 - Spanish Johnny [with Waylon Jennings]
04 - Bad Moon Rising
05 - Evangeline
06 - Hot Burrito, 2
07 - Millworker
08 - Oh Atlanta
09 - Mister Sandman
10 - Ashes By Now

Exact Audio Copy V1.0 beta 3 from 29. August 2011

EAC extraction logfile from 30. April 2014, 7:02

Emmylou Harris / Evangeline CD2

Used drive : PLEXTOR CD-R PREMIUM2 Adapter: 4 ID: 0

Read mode : Secure
Utilize accurate stream : Yes
Defeat audio cache : Yes
Make use of C2 pointers : No

Read offset correction : 30
Overread into Lead-In and Lead-Out : Yes
Fill up missing offset samples with silence : Yes
Delete leading and trailing silent blocks : No
Null samples used in CRC calculations : Yes
Used interface : Native Win32 interface for Win NT & 2000
Gap handling : Appended to previous track

Used output format : User Defined Encoder
Selected bitrate : 1024 kBit/s
Quality : High
Add ID3 tag : No
Command line compressor : C:\Program Files (x86)\Exact Audio Copy\Flac\flac.exe
Additional command line options : -8 -V -T "ARTIST=%artist%" -T "TITLE=%title%" -T "ALBUM=%albumtitle%" -T "DATE=%year%" -T "TRACKNUMBER=%tracknr%" -T "TOTALTRACKS=%numtracks%" -T "GENRE=%genre%" -T "ALBUMARTIST=%albumartist%" -T "ALBUM ARTIST=%albumartist%" -T "COMMENT=EAC Secure Mode, Test & Copy, AccurateRip, FLAC -8" %source%

TOC of the extracted CD Track | Start | Length | Start sector | End sector
-----------
1 | 0:00.00 | 3:51.04 | 0 | 17328
2 | 3:51.04 | 3:24.06 | 17329 | 32634
3 | 7:15.10 | 3:54.35 | 32635 | 50219
4 | 11:09.45 | 2:44.62 | 50220 | 62581
5 | 13:54.32 | 3:13.22 | 62582 | 77078
6 | 17:07.54 | 3:08.72 | 77079 | 91250
7 | 20:16.51 | 4:08.63 | 91251 | 109913
8 | 24:25.39 | 3:03.55 | 109914 | 123693
9 | 27:29.19 | 2:24.58 | 123694 | 134551
10 | 29:54.02 | 4:34.54 | 134552 | 155155

Track 1 Filename G:\FLAC\01 - I Don't Have To Crawl.wav Pre-gap length 0:00:02.00 Peak level 99.9 %
Extraction speed 1.8 X
Track quality 99.9 %
Test CRC 5E229761
Copy CRC 5E229761
Accurately ripped (confidence 20) [C14038AA] (AR v2)
Copy OK

Track 2 Filename G:\FLAC\02 - How High The Moon.wav Peak level 99.6 %
Extraction speed 1.8 X
Track quality 100.0 %
Test CRC 64532FDE
Copy CRC 64532FDE
Accurately ripped (confidence 20) [7BAF9390] (AR v2)
Copy OK

Track 3 Filename G:\FLAC\03 - Spanish Johnny [with Waylon Jennings].wav Peak level 100.0 %
Extraction speed 1.9 X
Track quality 100.0 %
Test CRC A0E6F7E2
Copy CRC A0E6F7E2
Accurately ripped (confidence 20) [948B5AA0] (AR v2)
Copy OK

Track 4 Filename G:\FLAC\04 - Bad Moon Rising.wav Peak level 100.0 %
Extraction speed 1.8 X
Track quality 100.0 %
Test CRC 841560BB
Copy CRC 841560BB
Accurately ripped (confidence 20) [40284CE4] (AR v2)
Copy OK

Track 5 Filename G:\FLAC\05 - Evangeline.wav Peak level 100.0 %
Extraction speed 1.9 X
Track quality 100.0 %
Test CRC 4662AF33
Copy CRC 4662AF33
Accurately ripped (confidence 20) [64F5DCA5] (AR v2)
Copy OK

Track 6 Filename G:\FLAC\06 - Hot Burrito, 2.wav Peak level 99.9 %
Extraction speed 1.9 X
Track quality 100.0 %
Test CRC DB1F624A
Copy CRC DB1F624A
Accurately ripped (confidence 20) 264BECB (AR v2)
Copy OK

Track 7 Filename G:\FLAC\07 - Millworker.wav Peak level 99.7 %
Extraction speed 1.9 X
Track quality 100.0 %
Test CRC 16044098
Copy CRC 16044098
Accurately ripped (confidence 20) [0F45FFAF] (AR v2)
Copy OK

Track 8 Filename G:\FLAC\08 - Oh Atlanta.wav Peak level 99.6 %
Extraction speed 1.8 X
Track quality 100.0 %
Test CRC E1341773
Copy CRC E1341773
Accurately ripped (confidence 20) [1C1608D4] (AR v2)
Copy OK

Track 9 Filename G:\FLAC\09 - Mister Sandman.wav Peak level 100.0 %
Extraction speed 1.8 X
Track quality 99.9 %
Test CRC 6CD038EB
Copy CRC 6CD038EB
Accurately ripped (confidence 20) [3E37A9B5] (AR v2)
Copy OK

Track 10 Filename G:\FLAC\10 - Ashes By Now.wav Peak level 99.8 %
Extraction speed 1.9 X
Track quality 100.0 %
Test CRC 6C46ED40
Copy CRC 6C46ED40
Accurately ripped (confidence 20) [0D53ED62] (AR v2)
Copy OK

All tracks accurately ripped

No errors occurred

End of status report

==== Log checksum B574764361E42A377081E557402CB88090CE86CEF76B0BD814F20FEB36BB48CB ====

http://i58.fastpic.ru/big/2015/0128/ba/0f1e2be70849483c91e5f703ba27d9ba.jpg


-----------

http://i64.fastpic.ru/big/2015/0128/f8/d02795d08532da42a316c670a8bb9df8.jpg
CD3 - Cimarron (1981)

"That Cimarron, Emmylou Harris' ninth regular album, was assembled largely from recording sessions held for her previous couple of records is no necessary reflection on its quality. In fact, Cimarron was a typical effort for Harris, presenting her usual mix of country favorites, songs borrowed from the pop/rock arena, and singer/songwriter discoveries. Most prominent among the last category was Townes Van Zandt's "If I Needed You," released as a single three months ahead of the LP. From the pop mainstream, Harris borrowed Poco's "Rose of Cimarron" and Bruce Springsteen's "The Price You Pay." The recent T.G. Sheppard country number one hit "The Last Cheater's Waltz" and "Tennessee Waltz," best remembered for Patti Page's pop hit, were given respectful readings. And there was a lovely arrangement of the traditional ballad "Spanish Is a Loving Tongue." But the most memorable songs on the album were its two other country Top Tens, Karen Brooks and Hank DeVito's "Tennessee Rose" and Paul Kennerley's "Born to Run." On the whole, the album maintained the high standard Harris had set with her previous releases, and it deserved its 1982 Grammy nomination for Best Country Vocal Performance, Female. Though it matched the success of recent Harris LPs on the country charts, hitting the Top Ten and remaining listed for more than nine months, it did not enjoy as great a pop crossover sale and became Harris' first regular album since her 1975 breakthrough not to go gold. This was more indicative of the overall decline in country's crossover success than of any deficiency of the album itself; nevertheless, Harris' commercial success had crested."


tracklist:
01 - Rose Of Cimarron
02 - Spanish Is A Loving Tongue [with Fayssoux Starling]
03 - If I Needed You [with Don Williams] [Cimarron WB]
04 - Another Lonesome Morning
05 - The Last Cheater's Waltz
06 - Born To Run
07 - The Price You Pay
08 - Son Of A Rotten Gambler
09 - Tennessee Waltz
10 - Tennessee Rose

Exact Audio Copy V1.0 beta 3 from 29. August 2011

EAC extraction logfile from 30. April 2014, 14:33

Emmylou Harris / Cimarron CD3

Used drive : PLEXTOR CD-R PREMIUM2 Adapter: 4 ID: 0

Read mode : Secure
Utilize accurate stream : Yes
Defeat audio cache : Yes
Make use of C2 pointers : No

Read offset correction : 30
Overread into Lead-In and Lead-Out : Yes
Fill up missing offset samples with silence : Yes
Delete leading and trailing silent blocks : No
Null samples used in CRC calculations : Yes
Used interface : Native Win32 interface for Win NT & 2000
Gap handling : Appended to previous track

Used output format : User Defined Encoder
Selected bitrate : 1024 kBit/s
Quality : High
Add ID3 tag : No
Command line compressor : C:\Program Files (x86)\Exact Audio Copy\Flac\flac.exe
Additional command line options : -8 -V -T "ARTIST=%artist%" -T "TITLE=%title%" -T "ALBUM=%albumtitle%" -T "DATE=%year%" -T "TRACKNUMBER=%tracknr%" -T "TOTALTRACKS=%numtracks%" -T "GENRE=%genre%" -T "ALBUMARTIST=%albumartist%" -T "ALBUM ARTIST=%albumartist%" -T "COMMENT=EAC Secure Mode, Test & Copy, AccurateRip, FLAC -8" %source%

TOC of the extracted CD Track | Start | Length | Start sector | End sector
-----------
1 | 0:00.00 | 4:21.34 | 0 | 19608
2 | 4:21.34 | 3:20.63 | 19609 | 34671
3 | 7:42.22 | 3:38.04 | 34672 | 51025
4 | 11:20.26 | 3:05.69 | 51026 | 64969
5 | 14:26.20 | 5:35.22 | 64970 | 90116
6 | 20:01.42 | 3:48.59 | 90117 | 107275
7 | 23:50.26 | 4:40.21 | 107276 | 128296
8 | 28:30.47 | 4:16.40 | 128297 | 147536
9 | 32:47.12 | 2:30.71 | 147537 | 158857
10 | 35:18.08 | 4:25.33 | 158858 | 178765

Track 1 Filename G:\FLAC\01 - Rose Of Cimarron.wav Pre-gap length 0:00:02.00 Peak level 98.8 %
Extraction speed 1.9 X
Track quality 100.0 %
Test CRC 2033888C
Copy CRC 2033888C
Accurately ripped (confidence 17) [0581D146] (AR v2)
Copy OK

Track 2 Filename G:\FLAC\02 - Spanish Is A Loving Tongue [with Fayssoux Starling].wav Peak level 98.8 %
Extraction speed 1.8 X
Track quality 99.9 %
Test CRC B9CC2E10
Copy CRC B9CC2E10
Accurately ripped (confidence 17) 45DE255 (AR v2)
Copy OK

Track 3 Filename G:\FLAC\03 - If I Needed You [with Don Williams] [Cimarron WB].wav Peak level 98.8 %
Extraction speed 1.9 X
Track quality 100.0 %
Test CRC 1DA7589C
Copy CRC 1DA7589C
Accurately ripped (confidence 17) [9C29E928] (AR v2)
Copy OK

Track 4 Filename G:\FLAC\04 - Another Lonesome Morning.wav Peak level 98.8 %
Extraction speed 1.8 X
Track quality 99.9 %
Test CRC F6487782
Copy CRC F6487782
Accurately ripped (confidence 17) [8BCDD411] (AR v2)
Copy OK

Track 5 Filename G:\FLAC\05 - The Last Cheater's Waltz.wav Peak level 98.8 %
Extraction speed 1.8 X
Track quality 99.9 %
Test CRC 0D32D8D4
Copy CRC 0D32D8D4
Accurately ripped (confidence 17) [A3984398] (AR v2)
Copy OK

Track 6 Filename G:\FLAC\06 - Born To Run.wav Peak level 98.8 %
Extraction speed 1.9 X
Track quality 100.0 %
Test CRC 3C637B5C
Copy CRC 3C637B5C
Accurately ripped (confidence 17) [C372C03F] (AR v2)
Copy OK

Track 7 Filename G:\FLAC\07 - The Price You Pay.wav Peak level 98.8 %
Extraction speed 1.9 X
Track quality 100.0 %
Test CRC F93880C3
Copy CRC F93880C3
Accurately ripped (confidence 17) [9D8CD375] (AR v2)
Copy OK

Track 8 Filename G:\FLAC\08 - Son Of A Rotten Gambler.wav Peak level 98.8 %
Extraction speed 1.9 X
Track quality 100.0 %
Test CRC 23D1FC14
Copy CRC 23D1FC14
Accurately ripped (confidence 17) [327C5EE7] (AR v2)
Copy OK

Track 9 Filename G:\FLAC\09 - Tennessee Waltz.wav Peak level 98.8 %
Extraction speed 1.8 X
Track quality 100.0 %
Test CRC 11FFE9A6
Copy CRC 11FFE9A6
Accurately ripped (confidence 17) [0E57DC04] (AR v2)
Copy OK

Track 10 Filename G:\FLAC\10 - Tennessee Rose.wav Peak level 98.8 %
Extraction speed 1.9 X
Track quality 100.0 %
Test CRC AF0CA960
Copy CRC AF0CA960
Accurately ripped (confidence 17) [98D455CA] (AR v2)
Copy OK

All tracks accurately ripped

No errors occurred

End of status report

==== Log checksum 6B999F8C487307175A37D98E184ED8C4413BDE5B8E2C71866F7FD052CFAC4349 ====

http://i57.fastpic.ru/big/2015/0128/13/09041df58c33a1d9b81bd4a0d15f2d13.jpg


--------

http://i68.fastpic.ru/big/2015/0128/0a/13863438bbd933b49c018e1526262e0a.jpg
CD4 - White Shoes (1983)

"Harris' final album with longtime producer (and husband) Brian Ahern is among her most surprising and diverse, perhaps the closest she's ever come to a straightahead rock LP. Among the unusual cover choices: Johnny Ace's "Pledging My Love" and Donna Summer's "On the Radio.""


tracklist:
01 - Drivin' Wheel
02 - Pledging My Love
03 - In My Dreams
04 - White Shoes
05 - On The Radio
06 - It's Only Rock 'n Roll
07 - Diamonds Are A Girl's Best Friend
08 - Good News
09 - Baby, Better Start Turnin' 'em Down
10 - Like An Old Fashioned Waltz

Exact Audio Copy V1.0 beta 3 from 29. August 2011

EAC extraction logfile from 30. April 2014, 15:40

Emmylou Harris / White Shoes CD4

Used drive : PLEXTOR CD-R PREMIUM2 Adapter: 4 ID: 0

Read mode : Secure
Utilize accurate stream : Yes
Defeat audio cache : Yes
Make use of C2 pointers : No

Read offset correction : 30
Overread into Lead-In and Lead-Out : Yes
Fill up missing offset samples with silence : Yes
Delete leading and trailing silent blocks : No
Null samples used in CRC calculations : Yes
Used interface : Native Win32 interface for Win NT & 2000
Gap handling : Appended to previous track

Used output format : User Defined Encoder
Selected bitrate : 1024 kBit/s
Quality : High
Add ID3 tag : No
Command line compressor : C:\Program Files (x86)\Exact Audio Copy\Flac\flac.exe
Additional command line options : -8 -V -T "ARTIST=%artist%" -T "TITLE=%title%" -T "ALBUM=%albumtitle%" -T "DATE=%year%" -T "TRACKNUMBER=%tracknr%" -T "TOTALTRACKS=%numtracks%" -T "GENRE=%genre%" -T "ALBUMARTIST=%albumartist%" -T "ALBUM ARTIST=%albumartist%" -T "COMMENT=EAC Secure Mode, Test & Copy, AccurateRip, FLAC -8" %source%

TOC of the extracted CD Track | Start | Length | Start sector | End sector
-----------
1 | 0:00.00 | 3:10.35 | 0 | 14284
2 | 3:10.35 | 3:00.20 | 14285 | 27804
3 | 6:10.55 | 3:15.70 | 27805 | 42499
4 | 9:26.50 | 3:30.17 | 42500 | 58266
5 | 12:56.67 | 5:11.65 | 58267 | 81656
6 | 18:08.57 | 2:55.55 | 81657 | 94836
7 | 21:04.37 | 3:39.73 | 94837 | 111334
8 | 24:44.35 | 3:52.15 | 111335 | 128749
9 | 28:36.50 | 3:04.15 | 128750 | 142564
10 | 31:40.65 | 3:11.65 | 142565 | 156954

Track 1 Filename G:\FLAC\01 - Drivin' Wheel.wav Pre-gap length 0:00:02.00 Peak level 88.4 %
Extraction speed 1.9 X
Track quality 100.0 %
Test CRC 3F90DAFD
Copy CRC 3F90DAFD
Accurately ripped (confidence 16) [49C0E805] (AR v2)
Copy OK

Track 2 Filename G:\FLAC\02 - Pledging My Love.wav Pre-gap length 0:00:02.50 Peak level 80.4 %
Extraction speed 1.8 X
Track quality 99.9 %
Test CRC 7DE5EFE2
Copy CRC 7DE5EFE2
Accurately ripped (confidence 16) [AFCBFA1E] (AR v2)
Copy OK

Track 3 Filename G:\FLAC\03 - In My Dreams.wav Pre-gap length 0:00:02.43 Peak level 92.7 %
Extraction speed 1.9 X
Track quality 100.0 %
Test CRC F637AD17
Copy CRC F637AD17
Accurately ripped (confidence 16) A84926C (AR v2)
Copy OK

Track 4 Filename G:\FLAC\04 - White Shoes.wav Pre-gap length 0:00:02.08 Peak level 90.9 %
Extraction speed 1.9 X
Track quality 100.0 %
Test CRC 55BC23DE
Copy CRC 55BC23DE
Accurately ripped (confidence 16) [93AD5753] (AR v2)
Copy OK

Track 5 Filename G:\FLAC\05 - On The Radio.wav Pre-gap length 0:00:02.47 Peak level 86.3 %
Extraction speed 1.9 X
Track quality 100.0 %
Test CRC A0EEF554
Copy CRC A0EEF554
Accurately ripped (confidence 16) [33A13F57] (AR v2)
Copy OK

Track 6 Filename G:\FLAC\06 - It's Only Rock 'n Roll.wav Pre-gap length 0:00:02.45 Peak level 82.5 %
Extraction speed 1.9 X
Track quality 100.0 %
Test CRC 87A1706E
Copy CRC 87A1706E
Accurately ripped (confidence 16) [ADA24E85] (AR v2)
Copy OK

Track 7 Filename G:\FLAC\07 - Diamonds Are A Girl's Best Friend.wav Pre-gap length 0:00:03.07 Peak level 90.7 %
Extraction speed 1.9 X
Track quality 100.0 %
Test CRC 02A7BD88
Copy CRC 02A7BD88
Accurately ripped (confidence 16) [E5EA282C] (AR v2)
Copy OK

Track 8 Filename G:\FLAC\08 - Good News.wav Pre-gap length 0:00:01.73 Peak level 73.4 %
Extraction speed 1.9 X
Track quality 100.0 %
Test CRC 960AC86D
Copy CRC 960AC86D
Accurately ripped (confidence 16) [87942268] (AR v2)
Copy OK

Track 9 Filename G:\FLAC\09 - Baby, Better Start Turnin' 'em Down.wav Pre-gap length 0:00:03.18 Peak level 91.6 %
Extraction speed 1.8 X
Track quality 100.0 %
Test CRC C8660750
Copy CRC C8660750
Accurately ripped (confidence 16) [4B5DC013] (AR v2)
Copy OK

Track 10 Filename G:\FLAC\10 - Like An Old Fashioned Waltz.wav Pre-gap length 0:00:04.48 Peak level 52.1 %
Extraction speed 1.9 X
Track quality 99.9 %
Test CRC 4BB7624C
Copy CRC 4BB7624C
Accurately ripped (confidence 16) [E3D48A99] (AR v2)
Copy OK

All tracks accurately ripped

No errors occurred

End of status report

==== Log checksum 206C8127586E750B295A0C786554049CB8F87ED090C5A1D52F66B9D9B086795F ====

http://i63.fastpic.ru/big/2015/0128/06/bab2664a585a5f62bce39a8986088306.jpg


-----------

http://i60.fastpic.ru/big/2015/0128/90/d20b28ab10d06e8afa21b9fe2ee78390.jpg
CD5 - Thirteen (1986)

"Thirteen takes its title from the number of solo efforts Harris had recorded to date; her numbering didn't take into account hits collections or her true debut, Gliding Bird, an album she later disowned. For that matter, Thirteen is no great shakes either -- with the exception of a lovely cover of Bruce Springsteen's "My Father's House," both the material and the performances are lackluster."


tracklist:
01 - Mystery Train
02 - You're Free To Go
03 - Sweetheart Of The Pines
04 - Just Someone I Used To Know (With John Anderson)
05 - My Father's House
06 - Lacassine Special
07 - Today I Started Loving You Again
08 - When I Was Yours
09 - I Had My Heart Set On You (With Duane Eddy)
10 - Your Long Journey

Exact Audio Copy V1.0 beta 3 from 29. August 2011

EAC extraction logfile from 4. May 2014, 17:30

Emmylou Harris / Thirteen CD5

Used drive : PLEXTOR CD-R PREMIUM2 Adapter: 4 ID: 0

Read mode : Secure
Utilize accurate stream : Yes
Defeat audio cache : Yes
Make use of C2 pointers : No

Read offset correction : 30
Overread into Lead-In and Lead-Out : Yes
Fill up missing offset samples with silence : Yes
Delete leading and trailing silent blocks : No
Null samples used in CRC calculations : Yes
Used interface : Native Win32 interface for Win NT & 2000
Gap handling : Appended to previous track

Used output format : User Defined Encoder
Selected bitrate : 1024 kBit/s
Quality : High
Add ID3 tag : No
Command line compressor : C:\Program Files (x86)\Exact Audio Copy\Flac\flac.exe
Additional command line options : -8 -V -T "ARTIST=%artist%" -T "TITLE=%title%" -T "ALBUM=%albumtitle%" -T "DATE=%year%" -T "TRACKNUMBER=%tracknr%" -T "TOTALTRACKS=%numtracks%" -T "GENRE=%genre%" -T "ALBUMARTIST=%albumartist%" -T "ALBUM ARTIST=%albumartist%" -T "COMMENT=EAC Secure Mode, Test & Copy, AccurateRip, FLAC -8" %source%

TOC of the extracted CD Track | Start | Length | Start sector | End sector
-----------
1 | 0:00.00 | 2:36.01 | 0 | 11700
2 | 2:36.01 | 2:50.39 | 11701 | 24489
3 | 5:26.40 | 3:23.59 | 24490 | 39773
4 | 8:50.24 | 3:01.05 | 39774 | 53353
5 | 11:51.29 | 4:51.45 | 53354 | 75223
6 | 16:42.74 | 2:54.71 | 75224 | 88344
7 | 19:37.70 | 3:24.69 | 88345 | 103713
8 | 23:02.64 | 2:46.65 | 103714 | 116228
9 | 25:49.54 | 3:12.20 | 116229 | 130648
10 | 29:01.74 | 3:46.63 | 130649 | 147661

Track 1 Filename G:\FLAC\01 - Mystery Train.wav Pre-gap length 0:00:02.00 Peak level 98.8 %
Extraction speed 1.8 X
Track quality 99.9 %
Test CRC ECE44139
Copy CRC ECE44139
Accurately ripped (confidence 19) [159D7979] (AR v2)
Copy OK

Track 2 Filename G:\FLAC\02 - You're Free To Go.wav Peak level 98.8 %
Extraction speed 1.9 X
Track quality 100.0 %
Test CRC 4C1B4E3F
Copy CRC 4C1B4E3F
Accurately ripped (confidence 19) [2F62E6CC] (AR v2)
Copy OK

Track 3 Filename G:\FLAC\03 - Sweetheart Of The Pines.wav Peak level 98.8 %
Extraction speed 1.9 X
Track quality 100.0 %
Test CRC 0976AA10
Copy CRC 0976AA10
Accurately ripped (confidence 19) [2C1DDA01] (AR v2)
Copy OK

Track 4 Filename G:\FLAC\04 - Just Someone I Used To Know (With John Anderson).wav Peak level 98.8 %
Extraction speed 1.9 X
Track quality 100.0 %
Test CRC 718A8E70
Copy CRC 718A8E70
Accurately ripped (confidence 19) [CD90A1CA] (AR v2)
Copy OK

Track 5 Filename G:\FLAC\05 - My Father's House.wav Peak level 98.8 %
Extraction speed 1.9 X
Track quality 100.0 %
Test CRC 168CE396
Copy CRC 168CE396
Accurately ripped (confidence 19) [F0A3DDEE] (AR v2)
Copy OK

Track 6 Filename G:\FLAC\06 - Lacassine Special.wav Peak level 78.3 %
Extraction speed 1.8 X
Track quality 99.9 %
Test CRC F563226A
Copy CRC F563226A
Accurately ripped (confidence 19) [FE46C03F] (AR v2)
Copy OK

Track 7 Filename G:\FLAC\07 - Today I Started Loving You Again.wav Peak level 98.8 %
Extraction speed 1.9 X
Track quality 100.0 %
Test CRC FD989F40
Copy CRC FD989F40
Accurately ripped (confidence 19) [EECB527E] (AR v2)
Copy OK

Track 8 Filename G:\FLAC\08 - When I Was Yours.wav Peak level 98.8 %
Extraction speed 1.9 X
Track quality 100.0 %
Test CRC 77017E3D
Copy CRC 77017E3D
Accurately ripped (confidence 19) [5E3D1BCC] (AR v2)
Copy OK

Track 9 Filename G:\FLAC\09 - I Had My Heart Set On You (With Duane Eddy).wav Peak level 98.8 %
Extraction speed 1.8 X
Track quality 100.0 %
Test CRC FE78BE2E
Copy CRC FE78BE2E
Accurately ripped (confidence 19) [6A97C25E] (AR v2)
Copy OK

Track 10 Filename G:\FLAC\10 - Your Long Journey.wav Peak level 98.8 %
Extraction speed 1.9 X
Track quality 100.0 %
Test CRC 86240D6E
Copy CRC 86240D6E
Accurately ripped (confidence 18) [6AC23E9F] (AR v2)
Copy OK

All tracks accurately ripped

No errors occurred

End of status report

==== Log checksum 65D356A308957E808ABF0F7CF62F65ABEC8D0F21ECF3E886667B278092D21230 ====

http://i68.fastpic.ru/big/2015/0128/c3/ea9728195ab1625186da833a32849bc3.jpg

--------

http://i64.fastpic.ru/big/2015/0128/d6/4b1d5352ab6bacca80959c93427fdcd6.jpg

http://i59.fastpic.ru/big/2015/0128/68/51a120ff74072dbbf2e64d620e340b68.jpg

http://i57.fastpic.ru/big/2015/0128/92/d75843d0f7f02b0134606c767dc2a192.jpg

DOWNLOAD LINKS:
Buy Premium To Support Me & Get Resumable Support & Max Speed

Uploaded.net:
zr37p.emmylouoas8086ARTWORK.rar
zr37p.emmylouoas8086cd1roses.rar
zr37p.emmylouoas8086cd1rosesMP.rar
zr37p.emmylouoas8086cd2evangeline.part1.rar
zr37p.emmylouoas8086cd2evangeline.part2.rar
zr37p.emmylouoas8086cd2evangelineMP.rar
zr37p.emmylouoas8086cd3cimarron.part1.rar
zr37p.emmylouoas8086cd3cimarron.part2.rar
zr37p.emmylouoas8086cd3cimarronMP.rar
zr37p.emmylouoas8086cd4white.rar
zr37p.emmylouoas8086cd4whiteMP.rar
zr37p.emmylouoas8086cd5thirteen.rar
zr37p.emmylouoas8086cd5thirteenMP.rar

Rapidgator.net:
zr37p.emmylouoas8086ARTWORK.rar.html
zr37p.emmylouoas8086cd1roses.rar.html
zr37p.emmylouoas8086cd1rosesMP.rar.html
zr37p.emmylouoas8086cd2evangeline.part1.rar.html
zr37p.emmylouoas8086cd2evangeline.part2.rar.html
zr37p.emmylouoas8086cd2evangelineMP.rar.html
zr37p.emmylouoas8086cd3cimarron.part1.rar.html
zr37p.emmylouoas8086cd3cimarron.part2.rar.html
zr37p.emmylouoas8086cd3cimarronMP.rar.html
zr37p.emmylouoas8086cd4white.rar.html
zr37p.emmylouoas8086cd4whiteMP.rar.html
zr37p.emmylouoas8086cd5thirteen.rar.html
zr37p.emmylouoas8086cd5thirteenMP.rar.html

Uploadable.ch:
zr37p.emmylouoas8086ARTWORK.rar
zr37p.emmylouoas8086cd1roses.rar
zr37p.emmylouoas8086cd1rosesMP.rar
zr37p.emmylouoas8086cd2evangeline.part1.rar
zr37p.emmylouoas8086cd2evangeline.part2.rar
zr37p.emmylouoas8086cd2evangelineMP.rar
zr37p.emmylouoas8086cd3cimarron.part1.rar
zr37p.emmylouoas8086cd3cimarron.part2.rar
zr37p.emmylouoas8086cd3cimarronMP.rar
zr37p.emmylouoas8086cd4white.rar
zr37p.emmylouoas8086cd4whiteMP.rar
zr37p.emmylouoas8086cd5thirteen.rar
zr37p.emmylouoas8086cd5thirteenMP.rar

Turbobit.net:
zr37p.emmylouoas8086ARTWORK.rar.html
zr37p.emmylouoas8086cd1roses.rar.html
zr37p.emmylouoas8086cd1rosesMP.rar.html
zr37p.emmylouoas8086cd2evangeline.part1.rar.html
zr37p.emmylouoas8086cd2evangeline.part2.rar.html
zr37p.emmylouoas8086cd2evangelineMP.rar.html
zr37p.emmylouoas8086cd3cimarron.part1.rar.html
zr37p.emmylouoas8086cd3cimarron.part2.rar.html
zr37p.emmylouoas8086cd3cimarronMP.rar.html
zr37p.emmylouoas8086cd4white.rar.html
zr37p.emmylouoas8086cd4whiteMP.rar.html
zr37p.emmylouoas8086cd5thirteen.rar.html
zr37p.emmylouoas8086cd5thirteenMP.rar.html

Links are Interchangeable - No Password - Single Extraction

Emmylou Harris - Original Album Series, Vol.2 (1980-1986) [5CD BoxSet] {2013 Rhino Vinyl Replica} Fast Download


Ad2

 
 
 
Dear visitor, you went to the site as an unregistered user. We encourage you to register or enter the site under your name.
 
   
 
 (Votes #: 0)