2013Zone For Latest Downloads

 
     
 
Legal Downloads » Music » Iron Butterfly - Heavy (1968)
Menu
Home Applications
Games Movies
Music TV Shows
Torrents Graphics

Sitemap

RSS
 
Advanced Search
Last News
Site Info
Top Contributors:
  1    supper88 32766
  2    admin 32671
  3    Whisky 10080
  4    Shark_ 8911
  5    creativelivenew 8706
  6    whathesupa 2799
  7    candymypost 840
  8    hvnteam 629
  9    vuong87 3


Articles:
  This Hour: 0
  Today: 0
  This Month: 58
  All Time: 515616


Torrents:
  Today: 0
  Yesterday: 0
  All Time: 156702


Membership:
  Registered Today :0
  This Hour:0
  This Month:0
  Total:14
  Banned:1

{online}
{inform_torrent}
Friend:
We Recomend
Trend
Trend
Ad1

Search In Site

Music : Iron Butterfly - Heavy (1968)
 
http://i67.fastpic.ru/big/2015/0128/f5/9d667cd7184ebdd3e157cf2e2c5127f5.jpg

Iron Butterfly - Heavy (1968)
EAC | Flac(Image) + Cue + Log & MP3 CBR 320Kbps
1993 | Rhino, 8122-71521-2 | ~ 222 or 92 Mb | Scans Included
Acid Rock / Psychedelic Rock / Prog Rock

"Iron Butterfly's 1968 debut album, Heavy, established the band's trademark sound, relying on plodding, heavy guitar riffs and thundering drums..."

Iron Butterfly - Heavy (1968):

http://i63.fastpic.ru/big/2015/0128/84/95b3de8c13500ea3ffc680a038892d84.jpg

Tracklist:

01. Possession (Doug Ingle) 02:46
02. Unconscious Power (Ron Bushy, Ingle, Danny Weis) 02:32
03. Get Out Of My Life, Woman (Allen Toussaint) 03:58
04. Gentle As It May Seem (Darryl DeLoach, Weis) 02:28
05. You Can't Win (DeLoach, Weis) 02:41
06. So-Lo (DeLoach, Ingle) 04:05
07. Look For The Sun (DeLoach, Ingle, Weis) 02:14
08. Fields Of Sun (DeLoach, Ingle) 03:12
09. Stamped Ideas (DeLoach, Ingle) 02:08
10. Iron Butterfly Theme (Ingle) 04:34

Musicians:

Doug Ingle - organ, vocals
Ron Bushy - drums
Jerry Penrod - bass guitar, vocals
Darryl DeLoach - tambourine, vocals
Danny Weis - guitar


Exact Audio Copy V1.0 beta 1 from 15. November 2010

EAC extraction logfile from 20. January 2015, 21:31

Iron Butterfly / Heavy

Used drive : MATSHITADVD-RAM UJ8A0AS Adapter: 0 ID: 1

Read mode : Secure
Utilize accurate stream : Yes
Defeat audio cache : Yes
Make use of C2 pointers : No

Read offset correction : 102
Overread into Lead-In and Lead-Out : No
Fill up missing offset samples with silence : Yes
Delete leading and trailing silent blocks : No
Null samples used in CRC calculations : Yes
Used interface : Native Win32 interface for Win NT & 2000

Used output format : Internal WAV Routines
Sample format : 44.100 Hz; 16 Bit; Stereo

TOC of the extracted CD Track | Start | Length | Start sector | End sector
-----------
1 | 0:00.00 | 2:46.38 | 0 | 12487
2 | 2:46.38 | 2:32.05 | 12488 | 23892
3 | 5:18.43 | 3:58.07 | 23893 | 41749
4 | 9:16.50 | 2:28.53 | 41750 | 52902
5 | 11:45.28 | 2:41.32 | 52903 | 65009
6 | 14:26.60 | 4:05.35 | 65010 | 83419
7 | 18:32.20 | 2:14.33 | 83420 | 93502
8 | 20:46.53 | 3:12.55 | 93503 | 107957
9 | 23:59.33 | 2:08.70 | 107958 | 117627
10 | 26:08.28 | 4:34.47 | 117628 | 138224

Range status and errors

Selected range Filename C:\Users\Alex\Music\Iron Butterfly - Heavy.wav Peak level 100.0 %
Extraction speed 0.1 X
Range quality 100.0 %
Test CRC AEDB1E12
Copy CRC AEDB1E12
Copy OK

No errors occurred


AccurateRip summary

Track 1 accurately ripped (confidence 5) 32C4113
Track 2 accurately ripped (confidence 6) [190B2BED]
Track 3 accurately ripped (confidence 6) [5E8386D9]
Track 4 accurately ripped (confidence 6) [CB567D7F]
Track 5 accurately ripped (confidence 6) [EA835632]
Track 6 accurately ripped (confidence 6) [C207B312]
Track 7 accurately ripped (confidence 6) [8701E0BE]
Track 8 accurately ripped (confidence 6) [AC9C7132]
Track 9 accurately ripped (confidence 6) [5F48BA45]
Track 10 accurately ripped (confidence 6) [C23C5382]

All tracks accurately ripped

End of status report

foobar2000 1.2.9 / Dynamic Range Meter 1.1.1
log date: 2015-01-25 18:52:08

--
Analyzed: Iron Butterfly / Heavy
--

DR Peak RMS Duration Track
--
DR12 0.00 dB -13.84 dB 2:47 01-Possession
DR10 0.00 dB -12.35 dB 2:32 02-Unconscious Power
DR12 -0.19 dB -14.75 dB 3:58 03-Get Out Of My Life, Woman
DR12 0.00 dB -13.38 dB 2:29 04-Gentle As It May Seem
DR10 0.00 dB -12.85 dB 2:41 05-You Can't Win
DR13 0.00 dB -15.97 dB 4:05 06-So-Lo
DR12 0.00 dB -13.18 dB 2:14 07-Look For The Sun
DR11 0.00 dB -13.63 dB 3:13 08-Fields Of Sun
DR11 0.00 dB -12.09 dB 2:09 09-Stamped Ideas
DR12 0.00 dB -13.58 dB 4:35 10-Iron Butterfly Theme
--

Number of tracks: 10
Official DR value: DR12

Samplerate: 44100 Hz
Channels: 2
Bits per sample: 16
Bitrate: 873 kbps
Codec: FLAC

[CUETools log; Date: 22.01.2015 22:30:19; Version: 2.1.4]
[CTDB TOCID: spFPtJBNtlGGBCwbXlEJ9_EJyN8-] found.
Track | CTDB Status
1 | (19/19) Accurately ripped
2 | (19/19) Accurately ripped
3 | (19/19) Accurately ripped
4 | (19/19) Accurately ripped
5 | (19/19) Accurately ripped
6 | (19/19) Accurately ripped
7 | (19/19) Accurately ripped
8 | (19/19) Accurately ripped
9 | (19/19) Accurately ripped
10 | (19/19) Accurately ripped
[AccurateRip ID: 000b3e0a-005a4f6c-7907330a] found.
Track [ CRC | V2 ] Status
01 32c4113|71a985f5 (02+05/20) Accurately ripped
02 [190b2bed|4750aaa6] (02+06/21) Accurately ripped
03 [5e8386d9|f6d48aa5] (02+06/21) Accurately ripped
04 [cb567d7f|136f37e6] (02+06/21) Accurately ripped
05 [ea835632|4a90a3b3] (02+06/21) Accurately ripped
06 [c207b312|36045a3e] (02+06/21) Accurately ripped
07 [8701e0be|77e70772] (02+06/21) Accurately ripped
08 [ac9c7132|c8190f40] (02+06/21) Accurately ripped
09 [5f48ba45|6ccdcfcb] (02+06/21) Accurately ripped
10 [c23c5382|5f02fde0] (02+06/21) Accurately ripped
Offsetted by 664:
01 [e936bdc3] (06/20) Accurately ripped
02 [2d054dbd] (06/21) Accurately ripped
03 [7230df01] (06/21) Accurately ripped
04 [fcdaec67] (06/21) Accurately ripped
05 [1eaaca2a] (06/21) Accurately ripped
06 e674722 (06/21) Accurately ripped
07 [8c3a3aee] (06/21) Accurately ripped
08 c69caca (06/21) Accurately ripped
09 [e98fbedd] (06/21) Accurately ripped
10 [5cf491a2] (06/21) Accurately ripped

Track Peak [ CRC32 ] [W/O NULL] [ LOG ]
-- 100,0 [AEDB1E12] [77F348BA] CRC32
01 100,0 [93D5C3EB] [204FEF06]
02 100,0 [49A1D90C] [4A8EE0E2]
03 97,8 [A5E86D31] [93152B40]
04 100,0 [26AA81C2] [F6913489]
05 100,0 [C5BC5B68] [369F014E]
06 100,0 [D7F6C77C] [62DB8F28]
07 100,0 [544B333E] [69104EDE]
08 100,0 [0F64371D] [7FE6B499]
09 100,0 [1FFE2163] [DE7E6B5E]
10 100,0 [23CC0183] [5A2B54A7]

http://i59.fastpic.ru/big/2015/0128/d7/5f1d3df08adc9c63a3f80778edbb58d7.jpg

All thanks go to Alex
DOWNLOAD LINKS:
Buy Premium To Support Me & Get Resumable Support & Max Speed


Links are Interchangeable - No Password - Single Extraction



Ad2

 
 
 
Dear visitor, you went to the site as an unregistered user. We encourage you to register or enter the site under your name.
 
   
 
 (Votes #: 0)