2013Zone For Latest Downloads

 
     
 
Legal Downloads » Music » Art Blakey and The Jazz Messengers - Caravan (1962) {2007 Riverside} [Keepnews Collection Complete Series] (Item #11)
Menu
Home Applications
Games Movies
Music TV Shows
Torrents Graphics

Sitemap

RSS
 
Advanced Search
Last News
Site Info
Top Contributors:
  1    supper88 32766
  2    admin 32693
  3    Whisky 10080
  4    Shark_ 8911
  5    creativelivenew 8706
  6    whathesupa 2799
  7    candymypost 840
  8    hvnteam 629
  9    vuong87 3


Articles:
  This Hour: 0
  Today: 0
  This Month: 0
  All Time: 515561


Torrents:
  Today: 0
  Yesterday: 0
  All Time: 156684


Membership:
  Registered Today :0
  This Hour:0
  This Month:0
  Total:14
  Banned:1

{online}
{inform_torrent}
Friend:
We Recomend
Trend
Trend
Ad1

Search In Site

Music : Art Blakey and The Jazz Messengers - Caravan (1962) {2007 Riverside} [Keepnews Collection Complete Series] (Item #11)
 

http://i63.fastpic.ru/big/2015/0128/1d/ae2b525a95503b1bf68a1ac99e73b61d.jpg
Art Blakey and The Jazz Messengers - Caravan (1962) {2007 Riverside} [Keepnews Collection Complete Series] (Item #11)
EAC rip (secure mode) | FLAC (tracks)+CUE+LOG -> 332 Mb | MP3 @320 -> 125 Mb
Full Artwork @ 600 dpi (png) -> 339 Mb | 5% repair rar | 24-bit remastering
© 2007 Concord / Riverside | 0888072301870
Jazz / Hard Bop

"Remastered in 24-bit from the original master tapes. Part of our Keepnews Collection, which spotlights classic albums originally produced by the legendary Orrin Keepnews. Art Blakey's legendary Jazz Messengers recorded for numerous labels large and small during the 35 years of its existence. Few periods in the band's storied history were as inspired as its 1962-63 stint at Riverside, when the Messengers were a sextet with the incredible Freddie Hubbard/Curtis Fuller/Wayne Shorter front line and Cedar Walton/Reggie Workman/Blakey rhythm section."

http://i63.fastpic.ru/big/2015/0128/84/273ec79dfec3dcd2d76b25a77f456284.jpg

"This was the Messengers' Riverside debut, and it attained instant classic status on the strength of its memorable Shorter and Hubbard compositions (two of which are heard in bonus alternate takes), great ballad features by Hubbard and Fuller, and a much-covered arrangement of the title track that features the leader at his most intense. · Two Bonus Tracks (not on original LP): Thermo [take 2] and Sweet ?n' Sour [take 4]."


http://i66.fastpic.ru/big/2015/0128/b4/27e9f3dfdf631f4bce85a568929843b4.jpg


All About Jazz INFO

Personnel:
Art Blakey - drums
Curtis Fuller - trombone
Freddie Hubbard - trumpet
Wayne Shorter - tenor saxophone
Cedar Walton - piano
Reggie Workman - bass

tracklist:
01 - Caravan
02 - Sweet 'n' Sour
03 - In the Wee Small Hours of the Morning
04 - This Is for Albert
05 - Skylark
06 - Thermo
07 - Thermo (take 2) (bonus track)
08 - Sweet 'n' Sour (take 4) (bonus track)

Exact Audio Copy V1.0 beta 3 from 29. August 2011

EAC extraction logfile from 25. January 2015, 0:55

Art Blakey and The Jazz Messengers / Caravan

Used drive : ATAPI iHAS124 B Adapter: 2 ID: 1

Read mode : Secure
Utilize accurate stream : Yes
Defeat audio cache : Yes
Make use of C2 pointers : No

Read offset correction : 6
Overread into Lead-In and Lead-Out : No
Fill up missing offset samples with silence : Yes
Delete leading and trailing silent blocks : No
Null samples used in CRC calculations : Yes
Used interface : Native Win32 interface for Win NT & 2000
Gap handling : Appended to previous track

Used output format : User Defined Encoder
Selected bitrate : 1024 kBit/s
Quality : High
Add ID3 tag : No
Command line compressor : C:\Program Files (x86)\FLAC Frontend\tools\flac.exe
Additional command line options : -8 -V -T "ARTIST=%artist%" -T "TITLE=%title%" -T "ALBUM=%albumtitle%" -T "DATE=%year%" -T "TRACKNUMBER=%tracknr%" -T "TOTALTRACKS=%numtracks%" -T "GENRE=%genre%" -T "ALBUMARTIST=%albumartist%" -T "ALBUM ARTIST=%albumartist%" -T "COMMENT=EAC Secure Mode, Test & Copy, AccurateRip, FLAC -8" %source%

TOC of the extracted CD Track | Start | Length | Start sector | End sector
-----------
1 | 0:00.00 | 9:47.56 | 0 | 44080
2 | 9:47.56 | 5:31.45 | 44081 | 68950
3 | 15:19.26 | 4:06.03 | 68951 | 87403
4 | 19:25.29 | 8:21.27 | 87404 | 125005
5 | 27:46.56 | 4:51.12 | 125006 | 146842
6 | 32:37.68 | 6:48.74 | 146843 | 177516
7 | 39:26.67 | 7:26.51 | 177517 | 211017
8 | 46:53.43 | 5:27.57 | 211018 | 235599

Track 1 Filename C:\Art Blakey and The Jazz Messengers - Caravan (1962) {2007 Riverside} [Keepnews Collection Complete Series] (Item #11)\01 - Caravan.wav Pre-gap length 0:00:02.00 Peak level 100.0 %
Extraction speed 2.2 X
Track quality 100.0 %
Test CRC 539C9A5F
Copy CRC 539C9A5F
Accurately ripped (confidence 14) [9AEC083B] (AR v2)
Copy OK

Track 2 Filename C:\Art Blakey and The Jazz Messengers - Caravan (1962) {2007 Riverside} [Keepnews Collection Complete Series] (Item #11)\02 - Sweet 'n' Sour.wav Peak level 94.0 %
Extraction speed 2.5 X
Track quality 100.0 %
Test CRC BA0987BE
Copy CRC BA0987BE
Accurately ripped (confidence 14) [7B4104FF] (AR v2)
Copy OK

Track 3 Filename C:\Art Blakey and The Jazz Messengers - Caravan (1962) {2007 Riverside} [Keepnews Collection Complete Series] (Item #11)\03 - In the Wee Small Hours of the Morning.wav Peak level 95.9 %
Extraction speed 1.9 X
Track quality 99.9 %
Test CRC 16AC719D
Copy CRC 16AC719D
Accurately ripped (confidence 14) [1CE1138A] (AR v2)
Copy OK

Track 4 Filename C:\Art Blakey and The Jazz Messengers - Caravan (1962) {2007 Riverside} [Keepnews Collection Complete Series] (Item #11)\04 - This Is for Albert.wav Peak level 100.0 %
Extraction speed 3.0 X
Track quality 100.0 %
Test CRC DF910BCF
Copy CRC DF910BCF
Accurately ripped (confidence 14) [440D2D61] (AR v2)
Copy OK

Track 5 Filename C:\Art Blakey and The Jazz Messengers - Caravan (1962) {2007 Riverside} [Keepnews Collection Complete Series] (Item #11)\05 - Skylark.wav Peak level 97.4 %
Extraction speed 2.3 X
Track quality 99.9 %
Test CRC 951D5821
Copy CRC 951D5821
Accurately ripped (confidence 14) [03294DF1] (AR v2)
Copy OK

Track 6 Filename C:\Art Blakey and The Jazz Messengers - Caravan (1962) {2007 Riverside} [Keepnews Collection Complete Series] (Item #11)\06 - Thermo.wav Peak level 100.0 %
Extraction speed 2.8 X
Track quality 99.9 %
Test CRC E25BB913
Copy CRC E25BB913
Accurately ripped (confidence 14) [DA8E203C] (AR v2)
Copy OK

Track 7 Filename C:\Art Blakey and The Jazz Messengers - Caravan (1962) {2007 Riverside} [Keepnews Collection Complete Series] (Item #11)\07 - Thermo (take 2) (bonus track).wav Peak level 100.0 %
Extraction speed 3.7 X
Track quality 100.0 %
Test CRC 549CD08B
Copy CRC 549CD08B
Accurately ripped (confidence 14) 678C4AC (AR v2)
Copy OK

Track 8 Filename C:\Art Blakey and The Jazz Messengers - Caravan (1962) {2007 Riverside} [Keepnews Collection Complete Series] (Item #11)\08 - Sweet 'n' Sour (take 4) (bonus track).wav Peak level 99.9 %
Extraction speed 3.7 X
Track quality 100.0 %
Test CRC 032BA4DC
Copy CRC 032BA4DC
Accurately ripped (confidence 14) 8F613D3 (AR v2)
Copy OK

All tracks accurately ripped

No errors occurred

End of status report

==== Log checksum BC60B9FD926582421957D279F5B119ECC0711D8DDC70A1C7D9A752923B6214C4 ====

http://i68.fastpic.ru/big/2015/0128/0d/6a0f5366b44e6a53bb7a6cf4511e840d.jpg

http://i68.fastpic.ru/big/2015/0128/08/ad7c5370899c3eb23454442518f54708.jpg


DOWNLOAD LINKS:
Buy Premium To Support Me & Get Resumable Support & Max Speed


Links are Interchangeable - No Password - Single Extraction

Art Blakey and The Jazz Messengers - Caravan (1962) {2007 Riverside} [Keepnews Collection Complete Series] (Item #11) Fast Download


Ad2

 
 
 
Dear visitor, you went to the site as an unregistered user. We encourage you to register or enter the site under your name.
 
   
 
 (Votes #: 0)