2013Zone For Latest Downloads

 
     
 
Legal Downloads » TV Shows » Herd in Iceland (2013)
Menu
Home Applications
Games Movies
Music TV Shows
Torrents Graphics

Sitemap

RSS
 
Advanced Search
Last News
Site Info
Top Contributors:
  1    supper88 32766
  2    admin 32671
  3    Whisky 10080
  4    Shark_ 8911
  5    creativelivenew 8706
  6    whathesupa 2799
  7    candymypost 840
  8    hvnteam 629
  9    vuong87 3


Articles:
  This Hour: 0
  Today: 0
  This Month: 58
  All Time: 515616


Torrents:
  Today: 0
  Yesterday: 0
  All Time: 156702


Membership:
  Registered Today :0
  This Hour:0
  This Month:0
  Total:14
  Banned:1

{online}
{inform_torrent}
Friend:
We Recomend
Trend
Trend
Ad1

Search In Site

TV Shows : Herd in Iceland (2013)
 
http://i66.fastpic.ru/big/2015/0128/5d/18f46d7b717bc64a1e4d7209200f9c5d.jpg

Herd in Iceland (2013)
HDTV | 1280x720 | MKV/x264 @ 2845 Kbps | 28mn | Audio: English AAc 147 kbps, 2 channels | Subs: None | 603 MB
Genre: Documentary

For over 1,000 years, Icelandic law has made it illegal to import horses onto the island. For that reason, Icelandic horses are a pure breed, isolated by oceanic borders. During the summer months, the horses live a remote and wild existence, grazing in the highlands and raising their young. Every September, they are rounded up by local farmers and directed across the rugged terrain to reunite with their owners. It's a breathtaking tradition that unites the country. HERD IN ICELAND, a film by Lindsay Blatt and Paul Taggart, documents the annual horse round-up. The result is a unique and moving portrait of Iceland's people, horses, and stunning landscape.
More info

Video
ID : 1
Format : AVC
Format/Info : Advanced Video Codec
Format profile : [email protected]
Format settings, CABAC : Yes
Format settings, ReFrames : 4 frames
Codec ID : avc1
Codec ID/Info : Advanced Video Coding
Duration : 28mn 21s
Bit rate mode : Variable
Bit rate : 2 845 Kbps
Width : 1 280 pixels
Height : 720 pixels
Display aspect ratio : 16:9
Frame rate mode : Constant
Frame rate : 23.976 fps
Color space : YUV
Chroma subsampling : 4:2:0
Bit depth : 8 bits
Scan type : Progressive
Bits/(Pixel*Frame) : 0.129
Stream size : 572 MiB (95%)
Writing library : x264 core 138 r2358 9e941d1
Encoding settings : cabac=1 / ref=3 / deblock=1:0:0 / analyse=0x3:0x113 / me=hex / subme=7 / psy=1 / psy_rd=1.00:0.00 / mixed_ref=1 / me_range=16 / chroma_me=1 / trellis=1 / 8x8dct=1 / cqm=0 / deadzone=21,11 / fast_pskip=1 / chroma_qp_offset=-2 / threads=12 / lookahead_threads=2 / sliced_threads=0 / nr=0 / decimate=1 / interlaced=0 / bluray_compat=0 / stitchable=1 / constrained_intra=0 / bframes=3 / b_pyramid=2 / b_adapt=1 / b_bias=0 / direct=1 / weightb=1 / open_gop=0 / weightp=2 / keyint=72 / keyint_min=24 / scenecut=40 / intra_refresh=0 / rc_lookahead=40 / rc=2pass / mbtree=1 / bitrate=2845 / ratetol=1.0 / qcomp=0.60 / qpmin=5 / qpmax=69 / qpstep=4 / cplxblur=20.0 / qblur=0.5 / vbv_maxrate=3750 / vbv_bufsize=12500 / nal_hrd=none / ip_ratio=1.40 / aq=1:1.00
Encoded date : UTC 2013-11-20 03:22:23
Tagged date : UTC 2013-11-20 03:22:23

Audio
ID : 2
Format : AAC
Format/Info : Advanced Audio Codec
Format version : Version 4
Format profile : LC
Codec ID : 40
Duration : 28mn 21s
Bit rate mode : Variable
Bit rate : 147 Kbps
Channel(s) : 2 channels
Channel positions : Front: L R
Sampling rate : 48.0 KHz
Compression mode : Lossy
Stream size : 29.8 MiB (5%)
Encoded date : UTC 2013-11-20 03:22:23
Tagged date : UTC 2013-11-20 03:22:23

http://i64.fastpic.ru/big/2015/0128/00/7defac6941f0838d1635a06ba36df900.jpg


DOWNLOAD LINKS:
Buy Premium To Support Me & Get Resumable Support & Max Speed


Links are Interchangeable - No Password - Single Extraction

Herd in Iceland (2013) Fast Download


Ad2

 
 
 
Dear visitor, you went to the site as an unregistered user. We encourage you to register or enter the site under your name.
 
   
 
 (Votes #: 0)