2013Zone For Latest Downloads

 
     
 
Legal Downloads » Music » Eddie B's Greasy Blues Bash - Got To Move (2014)
Menu
Home Applications
Games Movies
Music TV Shows
Torrents Graphics

Sitemap

RSS
 
Advanced Search
Last News
Site Info
Top Contributors:
  1    supper88 32766
  2    admin 32693
  3    Whisky 10080
  4    Shark_ 8911
  5    creativelivenew 8706
  6    whathesupa 2799
  7    candymypost 840
  8    hvnteam 629
  9    vuong87 3


Articles:
  This Hour: 0
  Today: 0
  This Month: 10
  All Time: 515561


Torrents:
  Today: 0
  Yesterday: 0
  All Time: 156684


Membership:
  Registered Today :0
  This Hour:0
  This Month:0
  Total:14
  Banned:1

{online}
{inform_torrent}
Friend:
We Recomend
Trend
Trend
Ad1

Search In Site

Music : Eddie B's Greasy Blues Bash - Got To Move (2014)
 
http://i63.fastpic.ru/big/2015/0128/b8/55bc9e3916546783f64871a4ac03a2b8.jpg

Eddie B's Greasy Blues Bash - Got To Move (2014)
EAC Rip | FLAC (Img) + Cue + Log ~ 422 Mb | MP3 CBR320 ~ 154 Mb
Scans Included (JPG, 600 dpi) | RAR 5% Recovery
Blues | Domaci Records #884501854887

"West Coast & Chicago Blues! If you Love Blues, There's No reason why you wouldn't Love this Record! Eddie delivers each song as they were his very own. Release Date: July 7, 2014. Recorded in 2010."

http://i59.fastpic.ru/big/2015/0128/51/6ef38ef33f8d0ea28258ec771d000d51.jpg

Track List:

01. Take A Little Walk With Me [04:16]
02. Feel So Bad [02:28]
03. Take Your Hand Down [05:12]
04. Just One More Time [03:48]
05. Cold Black Night [04:53]
06. New Place To Live [05:14]
07. Can't Hold Out [03:18]
08. Drinkin' Beer [04:05]
09. Got To Move [05:18]
10. Letter from Home [04:26]
11. My Baby's Sweeter [04:49]
12. Have A Good Time [03:33]
13. Studio Chatter [00:49]
14. Scrambled Licks [03:37]

Exact Audio Copy V1.0 beta 3 from 29. August 2011

Отчёт EAC об извлечении, выполненном 2. ноября 2014, 17:47

Eddie B's Greasy Blues Bash / Got to Move

Дисковод: PLEXTOR DVDR PX-880SA Adapter: 1 ID: 0

Режим чтения : Достоверность
?спользование точного потока : Да
Отключение кэ?а аудио : Да
?спользование указателей C2 : Нет

Коррекция смещения при чтении : 6
Способность читать области Lead-in и Lead-out : Нет
Заполнение пропущенных сэмплов ти?иной : Да
Удаление блоков с ти?иной в начале и конце : Нет
При вычислениях CRC использовались нулевые сэмплы : Да
?нтерфейс : Установленный вне?ний ASPI-интерфейс

Выходной формат : Пользовательский кодировщик
Выбранный битрейт : 1024 kBit/s
Качество : Высокий
Добавление ID3-тега : Нет
Утилита сжатия : C:\Program Files\Exact Audio Copy\FLAC\FLAC.EXE
Дополнительные параметры : -10 -V -T "ARTIST=%artist%" -T "ALBUM=%albumtitle%" -T "DATE=%year%" -T "GENRE=%genre%" -T "COMMENT=ripped by izia1956" %source%

TOC извлечённого CD Трек | Старт | Длительность | Начальный сектор | Конечный сектор
-------
1 | 0:00.00 | 4:15.60 | 0 | 19184
2 | 4:15.60 | 2:27.61 | 19185 | 30270
3 | 6:43.46 | 5:11.15 | 30271 | 53610
4 | 11:54.61 | 3:47.68 | 53611 | 70703
5 | 15:42.54 | 4:52.68 | 70704 | 92671
6 | 20:35.47 | 5:13.49 | 92672 | 116195
7 | 25:49.21 | 3:17.22 | 116196 | 130992
8 | 29:06.43 | 4:04.20 | 130993 | 149312
9 | 33:10.63 | 5:17.28 | 149313 | 173115
10 | 38:28.16 | 4:25.33 | 173116 | 193023
11 | 42:53.49 | 4:48.17 | 193024 | 214640
12 | 47:41.66 | 3:32.34 | 214641 | 230574
13 | 51:14.25 | 0:48.62 | 230575 | 234236
14 | 52:03.12 | 3:36.10 | 234237 | 250446

Характеристики диапазона извлечения и сообщения об о?ибках

Выбранный диапазон ?мя файла D:\BitComet\Eddie B's Greasy Blues Bash - Got to Move(2014)\Eddie B's Greasy Blues Bash - Got to Move.wav Пиковый уровень 100.0 %
Скорость извлечения 8.7 X
Качество диапазона 99.9 %
CRC теста ABE3A7CA
CRC копии ABE3A7CA
Копирование... OK

О?ибок не произо?ло


AccurateRip: сводка

Трек 1 отсутствует в базе данных
Трек 2 отсутствует в базе данных
Трек 3 отсутствует в базе данных
Трек 4 отсутствует в базе данных
Трек 5 отсутствует в базе данных
Трек 6 отсутствует в базе данных
Трек 7 отсутствует в базе данных
Трек 8 отсутствует в базе данных
Трек 9 отсутствует в базе данных
Трек 10 отсутствует в базе данных
Трек 11 отсутствует в базе данных
Трек 12 отсутствует в базе данных
Трек 13 отсутствует в базе данных
Трек 14 отсутствует в базе данных

Ни одного трека нет в базе AccurateRip

Конец отчёта

==== Контрольная сумма отчёта 609C5813724EACC9825FD58563DBDE3F912D6904B95432230897CC3264113D4A ====

foobar2000 1.2.6 / Dynamic Range Meter 1.1.1
log date: 2015-01-25 23:09:45

--
Analyzed: Eddie B's Greasy Blues Bash / Got to Move
--

DR Peak RMS Duration Track
--
DR8 0.00 dB -9.68 dB 4:16 01-Take A Little Walk With Me
DR9 0.00 dB -10.33 dB 2:28 02-Feel So Bad
DR9 0.00 dB -10.72 dB 5:11 03-Take Your Hand Down
DR9 -0.11 dB -10.24 dB 3:48 04-Just One More Time
DR8 0.00 dB -9.75 dB 4:53 05-Cold Black Night
DR9 0.00 dB -10.12 dB 5:14 06-New Place To Live
DR7 0.00 dB -7.72 dB 3:17 07-Can't Hold Out
DR8 0.00 dB -9.47 dB 4:04 08-Drinkin' Beer
DR9 -0.37 dB -10.49 dB 5:17 09-Got To Move
DR8 0.00 dB -9.30 dB 4:25 10-Letter from Home
DR7 0.00 dB -8.83 dB 4:48 11-My Baby's Sweeter
DR9 0.00 dB -9.89 dB 3:32 12-Have A Good Time
DR15 -4.98 dB -27.94 dB 0:49 13-Studio Chatter
DR7 0.00 dB -8.21 dB 3:36 14-Scrambled Licks
--

Number of tracks: 14
Official DR value: DR9

Samplerate: 44100 Hz
Channels: 2
Bits per sample: 16
Bitrate: 958 kbps
Codec: FLAC

http://i65.fastpic.ru/big/2015/0128/3a/b1140b2c26f34da70e6bdcba328b743a.jpg


DOWNLOAD LINKS:
Buy Premium To Support Me & Get Resumable Support & Max Speed


Links are Interchangeable - No Password - Single Extraction

Eddie B's Greasy Blues Bash - Got To Move (2014) Fast Download


Ad2

 
 
 
Dear visitor, you went to the site as an unregistered user. We encourage you to register or enter the site under your name.
 
   
 
 (Votes #: 0)