2013Zone For Latest Downloads

 
     
 
Legal Downloads » Music » Yngwie Malmsteen - Magnum Opus (1995)
Menu
Home Applications
Games Movies
Music TV Shows
Torrents Graphics

Sitemap

RSS
 
Advanced Search
Last News
Site Info
Top Contributors:
  1    supper88 32766
  2    admin 32711
  3    Whisky 10080
  4    Shark_ 8911
  5    creativelivenew 8706
  6    whathesupa 2799
  7    candymypost 840
  8    hvnteam 629
  9    vuong87 3


Articles:
  This Hour: 0
  Today: 0
  This Month: 0
  All Time: 515501


Torrents:
  Today: 0
  Yesterday: 0
  All Time: 156676


Membership:
  Registered Today :0
  This Hour:0
  This Month:0
  Total:14
  Banned:1

{online}
{inform_torrent}
Friend:
Full Download Scripts
Torrent Download
Trend
Trend

Search In Site

Music : Yngwie Malmsteen - Magnum Opus (1995)
 
http://i57.fastpic.ru/big/2015/0128/65/2b1393161ea06ddd8f90d8268c7a6565.jpg

Yngwie Malmsteen - Magnum Opus (1995)
Metal | 1cd | EAC Rip | Flac + Cue + Log | covers
Viceroy VIA8026-2 | rel: 1995 | 590Mb

This album is Yngwie's best album. But why? It's recognizably Yngwie... fast solos, keyboards, acoustic shredding, usually cheesy songwriting, requisite poppy song or two -- but it's also recognizably different. Done with taste, as some might say. You'll get a few surprises, but nothing you haven't heard on Seventh Sign. So what's the difference, then? Yngwie hasn't toned it down. Rather, Yngwie has let loose. With a genuine defiance of everything else, Yngwie has kicked everything else (and his own playing) up a notch, and adding an air of unpredictability to his formerly stale playing, and made a genuine album.
Even the poppy songs are done with taste. But he counters that with several ass kicker songs (Vengeance, Time Will Tell, Overture, Fire in the Sky, to name a few), which are heavier and done with better taste than anything else Yngwie has done before.
Usually, in previous Yngwie albums (and newer ones) I could never force myself to give them good reviews. In Rising Force, it was the unending wankery, in Marching Out, songs like Caught in the Middle and Don't Let it End were done competently enough, but still were boring. In Trilogy, every song was just too cheesy to really be taken seriously. In Odyssey you had to hear Yngwie bow to the pressure of record companies in making songs like Heaven Tonight, Now is the Time, Crystal Ball, and Dreamin', which reeked of hair metal. Ugh.
This time, Yngwie is just going for the jugular, aiming to knock the listener down with the fury and power of his music. Whereas before the classical nature could be seen as wankery, in this album, it's done tastefully, darker than previous albums. ~metal-archives

Track listing
01. Vengeance (4:50)
02. No Love Lost (3:08)
03. Tomorrow's Gone (5:20)
04. The Only One (4:02)
05. I'd Die Without You (5:50)
06. Overture 1622 (2:41)
07. Voodoo (6:19)
08. Cross The Line (3:32)
09. Time Will Tell (5:09)
10. Fire In The Sky (4:57)
11. Amberdawn (4:23)
~ (50:12)

Personnel
- Yngwie Malmsteen - guitar, sitar, background vocals, production
- Michael Vescera - lead vocals
- Mats Olausson - keyboard
- Shane Gaalaas - drums
- Barry Sparks - bass

Exact Audio Copy V0.99 prebeta 4 from 23. January 2008

Отчёт EAC об извлечении, выполненном 16. января 2010, 1:03

Yngwie J. Malmsteen / Magnum Opus

Дисковод: PIONEER DVD-RW DVR-115D Adapter: 1 ID: 1

Режим чтения : Достоверность
?спользование точного потока : Да
Отключение кэ?а аудио : Да
?спользование указателей C2 : Нет

Коррекция смещения при чтении : 48
Способность читать области Lead-in и Lead-out : Нет
Заполнение пропущенных сэмплов ти?иной : Да
Удаление блоков с ти?иной в начале и конце : Нет
При вычислениях CRC использовались нулевые сэмплы : Да
?нтерфейс : Установленный вне?ний ASPI-интерфейс

Выходной формат : Внутренние WAV-операции
Формат сэмплов : 44.100 Гц; 16 бит; стерео

TOC извлечённого CD Трек | Старт | Длительность | Начальный сектор | Конечный сектор
-------
1 | 0:00.00 | 4:49.60 | 0 | 21734
2 | 4:49.60 | 3:07.55 | 21735 | 35814
3 | 7:57.40 | 5:20.20 | 35815 | 59834
4 | 13:17.60 | 4:01.65 | 59835 | 77974
5 | 17:19.50 | 5:50.07 | 77975 | 104231
6 | 23:09.57 | 2:41.25 | 104232 | 116331
7 | 25:51.07 | 6:19.15 | 116332 | 144771
8 | 32:10.22 | 3:32.35 | 144772 | 160706
9 | 35:42.57 | 5:09.05 | 160707 | 183886
10 | 40:51.62 | 4:57.18 | 183887 | 206179
11 | 45:49.05 | 4:23.10 | 206180 | 225914

Характеристики диапазона извлечения и сообщения об о?ибках

Выбранный диапазон ?мя файла C:\MTemp\Yngwie J. Malmsteen - Magnum Opus.wav Пиковый уровень 100.0 %
Качество диапазона 100.0 %
CRC теста F6CD12FB
CRC копии F6CD12FB
Копирование... OK

О?ибок не произо?ло


AccurateRip: сводка

Трек 1 точное извлечение (доверие 3) [952F390C]
Трек 2 точное извлечение (доверие 3) [885A19CE]
Трек 3 точное извлечение (доверие 3) [73B9120C]
Трек 4 точное извлечение (доверие 3) [75505839]
Трек 5 точное извлечение (доверие 3) [056E3A65]
Трек 6 точное извлечение (доверие 3) [19CCD72B]
Трек 7 точное извлечение (доверие 3) [9DAD220F]
Трек 8 точное извлечение (доверие 3) [F5B0EDAB]
Трек 9 точное извлечение (доверие 3) DB14AD3
Трек 10 точное извлечение (доверие 3) [DEADA20C]
Трек 11 точное извлечение (доверие 3) [082483CF]

Все треки извлечены точно

Конец отчёта

[CUETools log; Date: 2015.01.26. 10:14:00; Version: 2.1.4]
[CTDB TOCID: iKZWekvo01cquC6G.bhSqvHSfbM-] found.
Track | CTDB Status
1 | (7/8) Accurately ripped
2 | (7/8) Accurately ripped
3 | (7/8) Accurately ripped
4 | (7/8) Accurately ripped
5 | (7/8) Accurately ripped
6 | (7/8) Accurately ripped
7 | (7/8) Accurately ripped
8 | (7/8) Accurately ripped
9 | (7/8) Accurately ripped
10 | (8/8) Accurately ripped
11 | (7/8) Accurately ripped
[AccurateRip ID: 00146829-00b1a568-940bc40b] found.
Track [ CRC | V2 ] Status
01 [952f390c|688faa8f] (06+07/13) Accurately ripped
02 [885a19ce|5e7e92d9] (06+07/13) Accurately ripped
03 [73b9120c|c3add3b5] (06+07/13) Accurately ripped
04 [75505839|19551169] (06+07/13) Accurately ripped
05 [056e3a65|b3c58412] (06+07/13) Accurately ripped
06 [19ccd72b|28e96320] (06+07/13) Accurately ripped
07 [9dad220f|bc379d09] (06+07/13) Accurately ripped
08 [f5b0edab|7943337f] (06+07/13) Accurately ripped
09 db14ad3|3128db9e (06+07/13) Accurately ripped
10 [deada20c|c2f33c96] (06+07/13) Accurately ripped
11 [082483cf|7e59ed58] (06+07/13) Accurately ripped

Track Peak [ CRC32 ] [W/O NULL]
-- 100,0 [F6CD12FB] [F5872750]
01 100,0 [3ECDEEAA] [5CDA457C]
02 100,0 [A07E5616] [855867DD]
03 99,9 [CB14A63C] [2C9E5BBC]
04 100,0 [AF402121] [FBE19D5D]
05 100,0 [9D1AB7D5] [205750B2]
06 100,0 [4DCE9C50] [56BC6BA0]
07 100,0 BCF545A [CBEF216F]
08 99,1 [C1A67D85] [86ED733E]
09 100,0 [C64653CE] [3657F7FC]
10 100,0 [2F968983] [A3645B1A]
11 97,2 [E3B8ED65] [DA6B3356]

Thx to AntonieS
DOWNLOAD LINKS:
Buy Premium To Support Me & Get Resumable Support & Max Speed


Links are Interchangeable - No Password - Single Extraction

Yngwie Malmsteen - Magnum Opus (1995) Fast Download



 
 
 
Dear visitor, you went to the site as an unregistered user. We encourage you to register or enter the site under your name.
 
   
 
 (Votes #: 0)