2013Zone For Latest Downloads

 
     
 
Legal Downloads » Music » The Dollyrots - (2014) Love Songs, Werewolves & Zombies + Bonus: 2014 Box Set Scans
Menu
Home Applications
Games Movies
Music TV Shows
Torrents Graphics

Sitemap

RSS
 
Advanced Search
Last News
Site Info
Top Contributors:
  1    supper88 32766
  2    admin 32671
  3    Whisky 10080
  4    Shark_ 8911
  5    creativelivenew 8706
  6    whathesupa 2799
  7    candymypost 840
  8    hvnteam 629
  9    vuong87 3


Articles:
  This Hour: 0
  Today: 0
  This Month: 40
  All Time: 515636


Torrents:
  Today: 0
  Yesterday: 0
  All Time: 156702


Membership:
  Registered Today :0
  This Hour:0
  This Month:0
  Total:14
  Banned:1

{online}
{inform_torrent}
Friend:
We Recomend
Trend
Trend

Search In Site

Music : The Dollyrots - (2014) Love Songs, Werewolves & Zombies + Bonus: 2014 Box Set Scans
 
http://i68.fastpic.ru/big/2015/0206/41/65d45620e029289f8370eb0fcef08341.jpg

The Dollyrots - (2014) Love Songs, Werewolves & Zombies + Bonus: 2014 Box Set Scans
EAC Secure Rip | FLAC (Image + Cue + Log) - 324 MB | Complete Scans (Jpeg 600 dpi) - 70.3 MB | MP3 (CBR320 Kbps) - 117 MB
Alternative Indie Rock, Power Pop, Pop Punk | Arrested Youth Records | AY-007 | 43:22 minutes | Hosted on: NirtoFlare, Filepost &

The Dollyrots sixth and fully acoustic album, featuring 15 original songs! Pressed up for the very first time on disc & presented in a high-quality digipak.
Support The Dollyrots!

Buy their music, see their shows and check out their great lineup of merch!

www.dollyrots.com



Exact Audio Copy V1.0 beta 2 from 29. April 2011

EAC extraction logfile from 5. January 2015, 11:25

The Dollyrots / Love Songs, Werewolves & Zombies

Used drive : HL-DT-STBD-RE BH14NS40 Adapter: 0 ID: 2

Read mode : Secure
Utilize accurate stream : Yes
Defeat audio cache : Yes
Make use of C2 pointers : No

Read offset correction : 6
Overread into Lead-In and Lead-Out : No
Fill up missing offset samples with silence : Yes
Delete leading and trailing silent blocks : No
Null samples used in CRC calculations : Yes
Used interface : Native Win32 interface for Win NT & 2000

Used output format : User Defined Encoder
Selected bitrate : 1024 kBit/s
Quality : High
Add ID3 tag : No
Command line compressor : C:\Program Files (x86)\Exact Audio Copy\Flac\flac.exe
Additional command line options : -V -5 -T "artist=%albumartist%" -T "title=%title%" -T "album=%albumtitle%" -T "date=%year%" -T "genre=%genre%" -T "tracknumber=%tracknr%" %source%

TOC of the extracted CD Track | Start | Length | Start sector | End sector
-----------
1 | 0:00.00 | 2:37.72 | 0 | 11846
2 | 2:37.72 | 2:44.01 | 11847 | 24147
3 | 5:21.73 | 3:08.10 | 24148 | 38257
4 | 8:30.08 | 3:19.07 | 38258 | 53189
5 | 11:49.15 | 2:18.29 | 53190 | 63568
6 | 14:07.44 | 3:07.43 | 63569 | 77636
7 | 17:15.12 | 2:12.30 | 77637 | 87566
8 | 19:27.42 | 2:49.57 | 87567 | 100298
9 | 22:17.24 | 2:48.56 | 100299 | 112954
10 | 25:06.05 | 3:08.15 | 112955 | 127069
11 | 28:14.20 | 3:42.74 | 127070 | 143793
12 | 31:57.19 | 2:31.49 | 143794 | 155167
13 | 34:28.68 | 2:49.00 | 155168 | 167842
14 | 37:17.68 | 2:42.62 | 167843 | 180054
15 | 40:00.55 | 3:20.68 | 180055 | 195122

Range status and errors

Selected range Filename C:\EAC\The Dollyrots - (2014) Love Songs, Werewolves & Zombies\The Dollyrots - Love Songs, Werewolves & Zombies.wav Peak level 91.6 %
Extraction speed 6.1 X
Range quality 100.0 %
Test CRC 44CEB597
Copy CRC 44CEB597
Copy OK

No errors occurred


AccurateRip summary

Track 1 not present in database
Track 2 not present in database
Track 3 not present in database
Track 4 not present in database
Track 5 not present in database
Track 6 not present in database
Track 7 not present in database
Track 8 not present in database
Track 9 not present in database
Track 10 not present in database
Track 11 not present in database
Track 12 not present in database
Track 13 not present in database
Track 14 not present in database
Track 15 not present in database

None of the tracks are present in the AccurateRip database

End of status report

==== Log checksum 523F5DF6961A59E1126C5DA83F39EF2E459AD03DD2046EA9FC8A044D137E7D30 ====

Track Listing:

01. Hyperactive (Acoustic)
02. Rather Be A Zombie
03. Smile Smile Smile
04. Anarchy & Disney
05. Where Is Johnny Retsched
06. Kari Equals Hottie
07. Punk Rock Werewolf
08. To The Moon
09. Emo Cthulhu
10. U.S.S.A.
11. Another Door Is Opening
12. Keeping Up With Barry
13. Be My Leia
14. $100 MILF
15. Won't Let Go

All songs written and composed by Kelly Ogden and Luis Cabezas.

The Dollyrots:

Kelly Ogden - bass, vocals
Luis Cabezas - guitar, background vocals

Album Released: February 25, 2014 (On-Demand CD-R)

foobar2000 1.3.2 / Dynamic Range Meter 1.1.0
log date: 2015-01-10 01:12:04

--
Analyzed: The Dollyrots / Love Songs, Werewolves & Zombies
--

DR Peak RMS Duration Track
--
DR6 -1.09 dB -8.36 dB 2:38 01-Hyperactive (Acoustic)
DR6 -0.78 dB -8.16 dB 2:44 02-Rather Be A Zombie
DR6 -0.78 dB -8.71 dB 3:08 03-Smile Smile Smile
DR5 -0.76 dB -7.20 dB 3:19 04-Anarchy & Disney
DR6 -0.78 dB -8.44 dB 2:18 05-Where Is Johnny Retsched
DR6 -0.78 dB -8.30 dB 3:08 06-Kari Equals Hottie
DR6 -0.77 dB -8.23 dB 2:12 07-Punk Rock Werewolf
DR6 -0.78 dB -8.54 dB 2:50 08-To The Moon
DR8 -0.77 dB -10.70 dB 2:49 09-Emo Cthulhu
DR6 -0.77 dB -7.55 dB 3:08 10-U.S.S.A.
DR6 -0.77 dB -7.79 dB 3:43 11-Another Door Is Opening
DR6 -0.78 dB -7.95 dB 2:32 12-Keeping Up With Barry
DR5 -0.78 dB -7.24 dB 2:49 13-Be My Leia
DR7 -0.78 dB -8.95 dB 2:43 14-$100 MILF
DR5 -0.78 dB -7.51 dB 3:21 15-Won't Let Go
--

Number of tracks: 15
Official DR value: DR6

Samplerate: 44100 Hz
Channels: 2
Bits per sample: 16
Bitrate: 994 kbps
Codec: FLAC

Bonus:

Complete 2014 Box Set Scans
(113 MB)

- The Dollyrots - Volume 1: 2004-2014 Box Set
- Sticker
- Autographed Poster


http://i63.fastpic.ru/big/2015/0206/f3/4cdefaf8deb2fad7f365b0a6e8ccabf3.jpg
http://i57.fastpic.ru/big/2015/0206/ad/3163b2bfd9dc6cd2c581012b9472fdad.jpg



DOWNLOAD LINKS:
Buy Premium To Support Me & Get Resumable Support & Max Speed


Links are Interchangeable - No Password - Single Extraction

 
 
 
Dear visitor, you went to the site as an unregistered user. We encourage you to register or enter the site under your name.
 
   
 
 (Votes #: 0)