2013Zone For Latest Downloads

 
     
 
Legal Downloads » Music » Maki Namekawa - Philip Glass: The Complete Piano Etudes (2014)
Menu
Home Applications
Games Movies
Music TV Shows
Torrents Graphics

Sitemap

RSS
 
Advanced Search
Last News
Site Info
Top Contributors:
  1    supper88 32766
  2    admin 32671
  3    Whisky 10080
  4    Shark_ 8911
  5    creativelivenew 8706
  6    whathesupa 2799
  7    candymypost 840
  8    hvnteam 629
  9    vuong87 3


Articles:
  This Hour: 0
  Today: 0
  This Month: 59
  All Time: 515636


Torrents:
  Today: 0
  Yesterday: 0
  All Time: 156702


Membership:
  Registered Today :0
  This Hour:0
  This Month:0
  Total:14
  Banned:1

{online}
{inform_torrent}
Friend:
We Recomend
Trend
Trend

Search In Site

Music : Maki Namekawa - Philip Glass: The Complete Piano Etudes (2014)
 
http://i65.fastpic.ru/big/2015/0206/5b/7ddc8a73713707bb81ceda69dec6cc5b.jpg

Maki Namekawa - Philip Glass: The Complete Piano Etudes (2014)
EAC Rip | Flac (Image + cue + log) | 2 CDs | Full Scans | 476 MB
Genre: Classical | Label: Orange Mountain Music | Catalog Number: 98

"Orange Mountain Music is proud to announce the availability of "The Complete Piano Etudes," a two-disc set covering both volumes of Glass piano etudes, 20 pieces in all. In addition to the first book (Etudes Nos.1-10) recorded anew with virtuoso Maki Namekawa, this set contains the world premiere recording of the second book of etudes (Nos.11-20) including the incredibly Romantic 20th Etudes. 125 minutes of music in total."

Tracklisting:

CD 01

1. Etude No.1
2. Etude No.2
3. Etude No.3
4. Etude No.4
5. Etude No.5
6. Etude No.6
7. Etude No.7
8. Etude No.8
9. Etude No.9
10. Etude No.10

Exact Audio Copy V1.0 beta 1 from 15. November 2010

EAC extraction logfile from 6. January 2015, 20:20

Philip Glass / The Complete Piano Etudes (CD1)

Used drive : Optiarc DVD RW AD-7203A Adapter: 4 ID: 1

Read mode : Secure
Utilize accurate stream : Yes
Defeat audio cache : Yes
Make use of C2 pointers : No

Read offset correction : 48
Overread into Lead-In and Lead-Out : No
Fill up missing offset samples with silence : Yes
Delete leading and trailing silent blocks : No
Null samples used in CRC calculations : Yes
Used interface : Native Win32 interface for Win NT & 2000

Used output format : User Defined Encoder
Selected bitrate : 128 kBit/s
Quality : High
Add ID3 tag : No
Command line compressor : C:\Program Files\FLAC\flac.exe
Additional command line options : -T "COMMENT=Ripped by GFox" -8 -V %s

TOC of the extracted CD Track | Start | Length | Start sector | End sector
-----------
1 | 0:00.00 | 4:39.66 | 0 | 20990
2 | 4:39.66 | 7:23.16 | 20991 | 54231
3 | 12:03.07 | 4:24.14 | 54232 | 74045
4 | 16:27.21 | 6:33.49 | 74046 | 103569
5 | 23:00.70 | 8:19.15 | 103570 | 141009
6 | 31:20.10 | 5:12.50 | 141010 | 164459
7 | 36:32.60 | 8:28.55 | 164460 | 202614
8 | 45:01.40 | 5:23.01 | 202615 | 226840
9 | 50:24.41 | 3:58.02 | 226841 | 244692
10 | 54:22.43 | 7:03.25 | 244693 | 276442

Range status and errors

Selected range Filename D:\EAC\Philip Glass - The Complete Piano Etudes (CD1).wav Peak level 96.3 %
Extraction speed 0.4 X
Range quality 99.9 %
Test CRC B6C64206
Copy CRC B6C64206
Copy OK

No errors occurred


AccurateRip summary

Track 1 accurately ripped (confidence 1) AD604FF
Track 2 accurately ripped (confidence 1) [EE4F4821]
Track 3 accurately ripped (confidence 1) [1824463E]
Track 4 accurately ripped (confidence 1) [74D528FE]
Track 5 accurately ripped (confidence 1) [4937C086]
Track 6 accurately ripped (confidence 1) [8EC19454]
Track 7 accurately ripped (confidence 1) [5573716A]
Track 8 accurately ripped (confidence 1) [3F4FA27D]
Track 9 accurately ripped (confidence 1) [E7DD06CF]
Track 10 accurately ripped (confidence 1) [0E236C61]

All tracks accurately ripped

End of status report

==== Log checksum D57D6D877AC9304A25A089CF8F177EFEC66F44DD60E495B0EC676775239AA140 ====

CD 02

1. Etude No.11
2. Etude No.12
3. Etude No.13
4. Etude No.14
5. Etude No.15
6. Etude No.16
7. Etude No.17
8. Etude No.18
9. Etude No.19
10. Etude No.20

Exact Audio Copy V1.0 beta 1 from 15. November 2010

EAC extraction logfile from 6. January 2015, 20:52

Philip Glass / The Complete Piano Etudes (CD2)

Used drive : Optiarc DVD RW AD-7203A Adapter: 4 ID: 1

Read mode : Secure
Utilize accurate stream : Yes
Defeat audio cache : Yes
Make use of C2 pointers : No

Read offset correction : 48
Overread into Lead-In and Lead-Out : No
Fill up missing offset samples with silence : Yes
Delete leading and trailing silent blocks : No
Null samples used in CRC calculations : Yes
Used interface : Native Win32 interface for Win NT & 2000

Used output format : User Defined Encoder
Selected bitrate : 128 kBit/s
Quality : High
Add ID3 tag : No
Command line compressor : C:\Program Files\FLAC\flac.exe
Additional command line options : -T "COMMENT=Ripped by GFox" -8 -V %s

TOC of the extracted CD Track | Start | Length | Start sector | End sector
-----------
1 | 0:00.00 | 6:31.07 | 0 | 29331
2 | 6:31.07 | 5:59.37 | 29332 | 56293
3 | 12:30.44 | 3:51.70 | 56294 | 73688
4 | 16:22.39 | 6:32.73 | 73689 | 103161
5 | 22:55.37 | 6:52.08 | 103162 | 134069
6 | 29:47.45 | 4:14.54 | 134070 | 153173
7 | 34:02.24 | 6:26.44 | 153174 | 182167
8 | 40:28.68 | 6:53.72 | 182168 | 213214
9 | 47:22.65 | 5:23.13 | 213215 | 237452
10 | 52:46.03 | 10:25.21 | 237453 | 284348

Range status and errors

Selected range Filename D:\EAC\Philip Glass - The Complete Piano Etudes (CD2).wav Peak level 96.4 %
Extraction speed 0.7 X
Range quality 100.0 %
Test CRC DD2F6625
Copy CRC DD2F6625
Copy OK

No errors occurred


AccurateRip summary

Track 1 accurately ripped (confidence 1) [00DD12A1]
Track 2 accurately ripped (confidence 1) [06B32FF6]
Track 3 accurately ripped (confidence 1) [6BE687F9]
Track 4 accurately ripped (confidence 1) [1C54F401]
Track 5 accurately ripped (confidence 1) [74174535]
Track 6 accurately ripped (confidence 1) [27DE1BC1]
Track 7 accurately ripped (confidence 1) [21A49768]
Track 8 accurately ripped (confidence 1) [830CEB0E]
Track 9 accurately ripped (confidence 1) [6CD12968]
Track 10 accurately ripped (confidence 1) [73CE0B99]

All tracks accurately ripped

End of status report

==== Log checksum A3A85A38ECB3F8F972F7A2DF7C3D2709AD4F4B74E6A555E5B5FCBBBD6D969B0E ====
DOWNLOAD LINKS:
Buy Premium To Support Me & Get Resumable Support & Max Speed


Links are Interchangeable - No Password - Single Extraction

 
 
 
Dear visitor, you went to the site as an unregistered user. We encourage you to register or enter the site under your name.
 
   
 
 (Votes #: 0)