2013Zone For Latest Downloads

 
     
 
Legal Downloads » Music » Jupiter Ascending - Michael Giacchino - 2015
Menu
Home Applications
Games Movies
Music TV Shows
Torrents Graphics

Sitemap

RSS
 
Advanced Search
Last News
Site Info
Top Contributors:
  1    supper88 32766
  2    admin 32671
  3    Whisky 10080
  4    Shark_ 8911
  5    creativelivenew 8706
  6    whathesupa 2799
  7    candymypost 840
  8    hvnteam 629
  9    vuong87 3


Articles:
  This Hour: 0
  Today: 0
  This Month: 20
  All Time: 515636


Torrents:
  Today: 0
  Yesterday: 0
  All Time: 156702


Membership:
  Registered Today :0
  This Hour:0
  This Month:0
  Total:14
  Banned:1

{online}
{inform_torrent}
Friend:
We Recomend
Trend
Trend

Search In Site

Music : Jupiter Ascending - Michael Giacchino - 2015
 
http://i64.fastpic.ru/big/2015/0206/fb/df1c28ad8b9aedc2c63d7799eec07efb.jpg

Jupiter Ascending (2 CD) (by Michael Giacchino) - 2015
Score | EAC: FLAC(Tracks+Cue)+LOG, Cover | WaterTower Music | 566.3 MB

"Jupiter Jones was born under a night sky, with signs predicting that she was destined for great things. Now grown, Jupiter dreams of the stars but wakes up to the cold reality of a job cleaning toilets and an endless run of bad breaks."

Tracklist
CD 1:
01. Jupiter Ascending - 1st Movement [0:04:12.44]
02. Jupiter Ascending - 2nd Movement [0:03:25.27]
03. Jupiter Ascending - 3rd Movement [0:05:54.39]
04. Jupiter Ascending - 4th Movement [0:03:28.30]
05. The House Of Abrasax [0:02:19.69]
06. I Hate My Life [0:02:08.30]
07. Scrambled Eggs [0:01:09.50]
08. The Abrasax Family Tree [0:09:14.72]
09. The Shadow Chase [0:05:49.67]
10. The Titus Clipper [0:07:05.62]
11. Mutinty On The Bounty Hunter [0:04:41.61]
12. On Reincarnation Under God [0:04:06.22]

CD 2:
01. Digging Up The Flirt [0:02:23.44]
02. A Wedding Darker [0:06:08.08]
03. Regenex Is People! [0:03:23.30]
04. The Lies Have It [0:02:22.73]
05. It's A Hellava Chase [0:08:14.21]
06. Dinosaur To New Hights [0:00:51.05]
07. Family Jeopardy [0:05:08.44]
08. Abdicate This! [0:03:29.12]
09. Flying Dinosaur Fight [0:05:28.50]
10. Commitment [0:10:00.37]
11. Flying Dinosaur Fught With Guts (Bonus) [0:02:34.67]

Exact Audio Copy V1.0 beta 3 from 29. August 2011

EAC extraction logfile from 3. February 2015, 13:30

Michael Giacchino / Jupiter Ascending

Used drive : PLEXTOR CD-R PX-230A Adapter: 0 ID: 0

Read mode : Secure
Utilize accurate stream : Yes
Defeat audio cache : Yes
Make use of C2 pointers : No

Read offset correction : 738
Overread into Lead-In and Lead-Out : No
Fill up missing offset samples with silence : Yes
Delete leading and trailing silent blocks : No
Null samples used in CRC calculations : Yes
Used interface : Native Win32 interface for Win NT & 2000
Gap handling : Appended to previous track

Used output format : User Defined Encoder
Selected bitrate : 1024 kBit/s
Quality : High
Add ID3 tag : No
Command line compressor : C:\Program Files\Exact Audio Copy\Flac\flac.exe
Additional command line options : -6 -V -T "ARTIST=%artist%" -T "TITLE=%title%" -T "ALBUM=%albumtitle%" -T "DATE=%year%"
-T "TRACKNUMBER=%tracknr%" -T "GENRE=%genre%" -T "COMMENT=%comment%" -T "ALBUMARTIST=%albuminterpret%" -T "COMPOSER=%composer%"
-T "DISCNUMBER=%cdnumber%" -T "TOTALDISCS=%totalcds%" -T "TOTALTRACKS=%numtracks%" %source% -o %dest%

TOC of the extracted CD Track | Start | Length | Start sector | End sector
-----------
1 | 0:00.00 | 4:12.44 | 0 | 18943
2 | 4:12.44 | 3:25.27 | 18944 | 34345
3 | 7:37.71 | 5:54.39 | 34346 | 60934
4 | 13:32.35 | 3:28.30 | 60935 | 76564
5 | 17:00.65 | 2:19.69 | 76565 | 87058
6 | 19:20.59 | 2:08.30 | 87059 | 96688
7 | 21:29.14 | 1:09.50 | 96689 | 101913
8 | 22:38.64 | 9:14.72 | 101914 | 143535
9 | 31:53.61 | 5:49.67 | 143536 | 169777
10 | 37:43.53 | 7:05.62 | 169778 | 201714
11 | 44:49.40 | 4:41.61 | 201715 | 222850
12 | 49:31.26 | 4:06.22 | 222851 | 241322

Track 1 Filename C:\Music\01 - Jupiter Ascending - 1st Movement.wav Pre-gap length 0:00:02.00 Peak level 94.4 %
Extraction speed 6.8 X
Track quality 100.0 %
Test CRC 346B5DC8
Copy CRC 346B5DC8
Track not present in AccurateRip database
Copy OK

Track 2 Filename C:\Music\02 - Jupiter Ascending - 2nd Movement.wav Peak level 68.8 %
Extraction speed 7.4 X
Track quality 100.0 %
Test CRC 11C3C3BB
Copy CRC 11C3C3BB
Track not present in AccurateRip database
Copy OK

Track 3 Filename C:\Music\03 - Jupiter Ascending - 3rd Movement.wav Peak level 99.1 %
Extraction speed 7.4 X
Track quality 100.0 %
Test CRC 0EB30EF3
Copy CRC 0EB30EF3
Track not present in AccurateRip database
Copy OK

Track 4 Filename C:\Music\04 - Jupiter Ascending - 4th Movement.wav Peak level 94.3 %
Extraction speed 6.9 X
Track quality 100.0 %
Test CRC 668C5E0D
Copy CRC 668C5E0D
Track not present in AccurateRip database
Copy OK

Track 5 Filename C:\Music\05 - The House Of Abrasax.wav Pre-gap length 0:00:01.74 Peak level 94.3 %
Extraction speed 6.8 X
Track quality 100.0 %
Test CRC 6CFB6A6C
Copy CRC 6CFB6A6C
Track not present in AccurateRip database
Copy OK

Track 6 Filename C:\Music\06 - I Hate My Life.wav Pre-gap length 0:00:00.74 Peak level 94.3 %
Extraction speed 7.0 X
Track quality 100.0 %
Test CRC 0298713E
Copy CRC 0298713E
Track not present in AccurateRip database
Copy OK

Track 7 Filename C:\Music\07 - Scrambled Eggs.wav Pre-gap length 0:00:00.74 Peak level 94.3 %
Extraction speed 6.4 X
Track quality 100.0 %
Test CRC FFE51468
Copy CRC FFE51468
Track not present in AccurateRip database
Copy OK

Track 8 Filename C:\Music\08 - The Abrasax Family Tree.wav Pre-gap length 0:00:00.74 Peak level 94.3 %
Extraction speed 8.5 X
Track quality 100.0 %
Test CRC 5C59D0B1
Copy CRC 5C59D0B1
Track not present in AccurateRip database
Copy OK

Track 9 Filename C:\Music\09 - The Shadow Chase.wav Pre-gap length 0:00:00.74 Peak level 94.3 %
Extraction speed 8.2 X
Track quality 99.9 %
Test CRC 85F76673
Copy CRC 85F76673
Track not present in AccurateRip database
Copy OK

Track 10 Filename C:\Music\10 - The Titus Clipper.wav Pre-gap length 0:00:00.74 Peak level 94.3 %
Extraction speed 9.5 X
Track quality 100.0 %
Test CRC 002A8275
Copy CRC 002A8275
Track not present in AccurateRip database
Copy OK

Track 11 Filename C:\Music\11 - Mutinty On The Bounty Hunter.wav Pre-gap length 0:00:00.74 Peak level 94.3 %
Extraction speed 9.7 X
Track quality 100.0 %
Test CRC DF064D4F
Copy CRC DF064D4F
Track not present in AccurateRip database
Copy OK

Track 12 Filename C:\Music\12 - On Reincarnation Under God.wav Pre-gap length 0:00:00.74 Peak level 95.3 %
Extraction speed 9.8 X
Track quality 100.0 %
Test CRC C57FD245
Copy CRC C57FD245
Track not present in AccurateRip database
Copy OK

None of the tracks are present in the AccurateRip database

No errors occurred

End of status report

==== Log checksum 656B10C68D00F9EB27E151E204B5946C28585BD8588FE7BEFA57733FACE96F2A ====

Exact Audio Copy V1.0 beta 3 from 29. August 2011

EAC extraction logfile from 3. February 2015, 13:58

Michael Giacchino / Jupiter Ascending CD 2

Used drive : PLEXTOR CD-R PX-230A Adapter: 0 ID: 0

Read mode : Secure
Utilize accurate stream : Yes
Defeat audio cache : Yes
Make use of C2 pointers : No

Read offset correction : 738
Overread into Lead-In and Lead-Out : No
Fill up missing offset samples with silence : Yes
Delete leading and trailing silent blocks : No
Null samples used in CRC calculations : Yes
Used interface : Native Win32 interface for Win NT & 2000
Gap handling : Appended to previous track

Used output format : User Defined Encoder
Selected bitrate : 1024 kBit/s
Quality : High
Add ID3 tag : No
Command line compressor : C:\Program Files\Exact Audio Copy\Flac\flac.exe
Additional command line options : -6 -V -T "ARTIST=%artist%" -T "TITLE=%title%" -T "ALBUM=%albumtitle%" -T "DATE=%year%"
-T "TRACKNUMBER=%tracknr%" -T "GENRE=%genre%" -T "COMMENT=%comment%" -T "ALBUMARTIST=%albuminterpret%" -T "COMPOSER=%composer%"
-T "DISCNUMBER=%cdnumber%" -T "TOTALDISCS=%totalcds%" -T "TOTALTRACKS=%numtracks%" %source% -o %dest%

TOC of the extracted CD Track | Start | Length | Start sector | End sector
-----------
1 | 0:00.00 | 2:23.44 | 0 | 10768
2 | 2:23.44 | 6:08.08 | 10769 | 38376
3 | 8:31.52 | 3:23.30 | 38377 | 53631
4 | 11:55.07 | 2:22.73 | 53632 | 64354
5 | 14:18.05 | 8:14.21 | 64355 | 101425
6 | 22:32.26 | 0:51.05 | 101426 | 105255
7 | 23:23.31 | 5:08.44 | 105256 | 128399
8 | 28:32.00 | 3:29.12 | 128400 | 144086
9 | 32:01.12 | 5:28.50 | 144087 | 168736
10 | 37:29.62 | 10:00.37 | 168737 | 213773
11 | 47:30.24 | 2:34.67 | 213774 | 225390

Track 1 Filename C:\Music\01 - Digging Up The Flirt.wav Pre-gap length 0:00:02.00 Peak level 94.3 %
Extraction speed 3.4 X
Track quality 100.0 %
Test CRC 34D4BA6B
Copy CRC 34D4BA6B
Track not present in AccurateRip database
Copy OK

Track 2 Filename C:\Music\02 - A Wedding Darker.wav Pre-gap length 0:00:00.74 Peak level 94.6 %
Extraction speed 5.3 X
Track quality 100.0 %
Test CRC E17D137B
Copy CRC E17D137B
Track not present in AccurateRip database
Copy OK

Track 3 Filename C:\Music\03 - Regenex Is People!.wav Pre-gap length 0:00:00.74 Peak level 94.3 %
Extraction speed 5.5 X
Track quality 100.0 %
Test CRC 5E2C5BC5
Copy CRC 5E2C5BC5
Track not present in AccurateRip database
Copy OK

Track 4 Filename C:\Music\04 - The Lies Have It.wav Pre-gap length 0:00:01.37 Peak level 94.4 %
Extraction speed 5.2 X
Track quality 100.0 %
Test CRC AF5FE972
Copy CRC AF5FE972
Track not present in AccurateRip database
Copy OK

Track 5 Filename C:\Music\05 - It's A Hellava Chase.wav Pre-gap length 0:00:01.51 Peak level 94.3 %
Extraction speed 5.2 X
Track quality 100.0 %
Test CRC D49CD6B8
Copy CRC D49CD6B8
Track not present in AccurateRip database
Copy OK

Track 6 Filename C:\Music\06 - Dinosaur To New Hights.wav Pre-gap length 0:00:01.37 Peak level 94.4 %
Extraction speed 3.8 X
Track quality 100.0 %
Test CRC C8BAFE16
Copy CRC C8BAFE16
Track not present in AccurateRip database
Copy OK

Track 7 Filename C:\Music\07 - Family Jeopardy.wav Pre-gap length 0:00:01.74 Peak level 94.3 %
Extraction speed 5.1 X
Track quality 100.0 %
Test CRC FBCFBFC9
Copy CRC FBCFBFC9
Track not present in AccurateRip database
Copy OK

Track 8 Filename C:\Music\08 - Abdicate This!.wav Pre-gap length 0:00:01.37 Peak level 94.3 %
Extraction speed 4.8 X
Track quality 99.9 %
Test CRC F846400F
Copy CRC F846400F
Track not present in AccurateRip database
Copy OK

Track 9 Filename C:\Music\09 - Flying Dinosaur Fight.wav Pre-gap length 0:00:00.74 Peak level 94.3 %
Extraction speed 4.9 X
Track quality 99.9 %
Test CRC 88138953
Copy CRC 88138953
Track not present in AccurateRip database
Copy OK

Track 10 Filename C:\Music\10 - Commitment.wav Pre-gap length 0:00:00.74 Peak level 94.3 %
Extraction speed 5.1 X
Track quality 100.0 %
Test CRC 5A09BFFC
Copy CRC 5A09BFFC
Track not present in AccurateRip database
Copy OK

Track 11 Filename C:\Music\11 - Flying Dinosaur Fught With Guts (Bonus).wav Pre-gap length 0:00:02.74 Peak level 94.3 %
Extraction speed 5.0 X
Track quality 100.0 %
Test CRC B9BA5461
Copy CRC B9BA5461
Track not present in AccurateRip database
Copy OK

None of the tracks are present in the AccurateRip database

No errors occurred

End of status report

==== Log checksum 46FC5D10315C6E8EB10BD92D3E3B8C405D9E6E411928AF676A9D511C4D3311F1 ====
DOWNLOAD LINKS:
Buy Premium To Support Me & Get Resumable Support & Max Speed


Links are Interchangeable - No Password - Single Extraction

 
 
 
Dear visitor, you went to the site as an unregistered user. We encourage you to register or enter the site under your name.
 
   
 
 (Votes #: 0)